  0
SECTION
  2
HEADER
  9
$ACADVER
  1
AC1015
  9
$ACADMAINTVER
 70
    20
  9
$DWGCODEPAGE
  3
ANSI_1252
  9
$INSBASE
 10
0.0
 20
0.0
 30
0.0
  9
$EXTMIN
 10
-75.0
 20
-75.0
 30
0.0
  9
$EXTMAX
 10
2175.0
 20
1560.0
 30
0.0
  9
$LIMMIN
 10
0.0
 20
0.0
  9
$LIMMAX
 10
2100.0
 20
1485.0
  9
$ORTHOMODE
 70
     0
  9
$REGENMODE
 70
     1
  9
$FILLMODE
 70
     1
  9
$QTEXTMODE
 70
     0
  9
$MIRRTEXT
 70
     1
  9
$LTSCALE
 40
25.0
  9
$ATTMODE
 70
     1
  9
$TEXTSIZE
 40
3.5
  9
$TRACEWID
 40
0.05
  9
$TEXTSTYLE
  7
TEXT35
  9
$CLAYER
  8
SICHTBAR
  9
$CELTYPE
  6
BYLAYER
  9
$CECOLOR
 62
   256
  9
$CELTSCALE
 40
1.0
  9
$DISPSILH
 70
     0
  9
$DIMSCALE
 40
5.0
  9
$DIMASZ
 40
3.5
  9
$DIMEXO
 40
0.0
  9
$DIMDLI
 40
0.0
  9
$DIMRND
 40
0.0
  9
$DIMDLE
 40
0.0
  9
$DIMEXE
 40
1.399999999999999
  9
$DIMTP
 40
0.0
  9
$DIMTM
 40
0.0
  9
$DIMTXT
 40
3.5
  9
$DIMCEN
 40
3.0
  9
$DIMTSZ
 40
0.0
  9
$DIMTOL
 70
     0
  9
$DIMLIM
 70
     0
  9
$DIMTIH
 70
     0
  9
$DIMTOH
 70
     0
  9
$DIMSE1
 70
     0
  9
$DIMSE2
 70
     0
  9
$DIMTAD
 70
     1
  9
$DIMZIN
 70
     8
  9
$DIMBLK
  1

  9
$DIMASO
 70
     1
  9
$DIMSHO
 70
     1
  9
$DIMPOST
  1

  9
$DIMAPOST
  1

  9
$DIMALT
 70
     0
  9
$DIMALTD
 70
     2
  9
$DIMALTF
 40
25.4
  9
$DIMLFAC
 40
1.0
  9
$DIMTOFL
 70
     1
  9
$DIMTVP
 40
0.0
  9
$DIMTIX
 70
     0
  9
$DIMSOXD
 70
     0
  9
$DIMSAH
 70
     0
  9
$DIMBLK1
  1

  9
$DIMBLK2
  1

  9
$DIMSTYLE
  2
BEMASS
  9
$DIMCLRD
 70
     3
  9
$DIMCLRE
 70
     3
  9
$DIMCLRT
 70
     3
  9
$DIMTFAC
 40
0.875
  9
$DIMGAP
 40
2.0
  9
$DIMJUST
 70
     0
  9
$DIMSD1
 70
     0
  9
$DIMSD2
 70
     0
  9
$DIMTOLJ
 70
     1
  9
$DIMTZIN
 70
     8
  9
$DIMALTZ
 70
     8
  9
$DIMALTTZ
 70
     8
  9
$DIMUPT
 70
     0
  9
$DIMDEC
 70
     2
  9
$DIMTDEC
 70
     2
  9
$DIMALTU
 70
     2
  9
$DIMALTTD
 70
     2
  9
$DIMTXSTY
  7
BEMSTIL
  9
$DIMAUNIT
 70
     0
  9
$DIMADEC
 70
     0
  9
$DIMALTRND
 40
0.0
  9
$DIMAZIN
 70
     0
  9
$DIMDSEP
 70
    44
  9
$DIMATFIT
 70
     3
  9
$DIMFRAC
 70
     0
  9
$DIMLDRBLK
  1

  9
$DIMLUNIT
 70
     2
  9
$DIMLWD
 70
    25
  9
$DIMLWE
 70
    25
  9
$DIMTMOVE
 70
     2
  9
$LUNITS
 70
     2
  9
$LUPREC
 70
     1
  9
$SKETCHINC
 40
0.1
  9
$FILLETRAD
 40
0.0
  9
$AUNITS
 70
     0
  9
$AUPREC
 70
     0
  9
$MENU
  1
ACAD
  9
$ELEVATION
 40
0.0
  9
$PELEVATION
 40
0.0
  9
$THICKNESS
 40
0.0
  9
$LIMCHECK
 70
     0
  9
$CHAMFERA
 40
0.0
  9
$CHAMFERB
 40
0.0
  9
$CHAMFERC
 40
0.0
  9
$CHAMFERD
 40
0.0
  9
$SKPOLY
 70
     0
  9
$TDCREATE
 40
2450029.588839815
  9
$TDUCREATE
 40
2450029.547173148
  9
$TDUPDATE
 40
2456372.473774468
  9
$TDUUPDATE
 40
2456372.432107801
  9
$TDINDWG
 40
0.1202634491
  9
$TDUSRTIMER
 40
0.1202634491
  9
$USRTIMER
 70
     1
  9
$ANGBASE
 50
0.0
  9
$ANGDIR
 70
     0
  9
$PDMODE
 70
     0
  9
$PDSIZE
 40
0.0
  9
$PLINEWID
 40
0.0
  9
$SPLFRAME
 70
     0
  9
$SPLINETYPE
 70
     6
  9
$SPLINESEGS
 70
     8
  9
$HANDSEED
  5
917
  9
$SURFTAB1
 70
     6
  9
$SURFTAB2
 70
     6
  9
$SURFTYPE
 70
     6
  9
$SURFU
 70
     6
  9
$SURFV
 70
     6
  9
$UCSBASE
  2

  9
$UCSNAME
  2

  9
$UCSORG
 10
0.0
 20
0.0
 30
0.0
  9
$UCSXDIR
 10
1.0
 20
0.0
 30
0.0
  9
$UCSYDIR
 10
0.0
 20
1.0
 30
0.0
  9
$UCSORTHOREF
  2

  9
$UCSORTHOVIEW
 70
     0
  9
$UCSORGTOP
 10
0.0
 20
0.0
 30
0.0
  9
$UCSORGBOTTOM
 10
0.0
 20
0.0
 30
0.0
  9
$UCSORGLEFT
 10
0.0
 20
0.0
 30
0.0
  9
$UCSORGRIGHT
 10
0.0
 20
0.0
 30
0.0
  9
$UCSORGFRONT
 10
0.0
 20
0.0
 30
0.0
  9
$UCSORGBACK
 10
0.0
 20
0.0
 30
0.0
  9
$PUCSBASE
  2

  9
$PUCSNAME
  2

  9
$PUCSORG
 10
0.0
 20
0.0
 30
0.0
  9
$PUCSXDIR
 10
1.0
 20
0.0
 30
0.0
  9
$PUCSYDIR
 10
0.0
 20
1.0
 30
0.0
  9
$PUCSORTHOREF
  2

  9
$PUCSORTHOVIEW
 70
     0
  9
$PUCSORGTOP
 10
0.0
 20
0.0
 30
0.0
  9
$PUCSORGBOTTOM
 10
0.0
 20
0.0
 30
0.0
  9
$PUCSORGLEFT
 10
0.0
 20
0.0
 30
0.0
  9
$PUCSORGRIGHT
 10
0.0
 20
0.0
 30
0.0
  9
$PUCSORGFRONT
 10
0.0
 20
0.0
 30
0.0
  9
$PUCSORGBACK
 10
0.0
 20
0.0
 30
0.0
  9
$USERI1
 70
     0
  9
$USERI2
 70
     0
  9
$USERI3
 70
     0
  9
$USERI4
 70
     0
  9
$USERI5
 70
     0
  9
$USERR1
 40
0.0
  9
$USERR2
 40
0.0
  9
$USERR3
 40
0.0
  9
$USERR4
 40
0.0
  9
$USERR5
 40
0.0
  9
$WORLDVIEW
 70
     1
  9
$SHADEDGE
 70
     3
  9
$SHADEDIF
 70
    70
  9
$TILEMODE
 70
     1
  9
$MAXACTVP
 70
    16
  9
$PINSBASE
 10
0.0
 20
0.0
 30
0.0
  9
$PLIMCHECK
 70
     0
  9
$PEXTMIN
 10
1.000000000000000E+20
 20
1.000000000000000E+20
 30
1.000000000000000E+20
  9
$PEXTMAX
 10
-1.000000000000000E+20
 20
-1.000000000000000E+20
 30
-1.000000000000000E+20
  9
$PLIMMIN
 10
0.0
 20
0.0
  9
$PLIMMAX
 10
417.0
 20
288.0
  9
$UNITMODE
 70
     0
  9
$VISRETAIN
 70
     0
  9
$PLINEGEN
 70
     0
  9
$PSLTSCALE
 70
     0
  9
$TREEDEPTH
 70
  3020
  9
$CMLSTYLE
  2
STANDARD
  9
$CMLJUST
 70
     0
  9
$CMLSCALE
 40
1.0
  9
$PROXYGRAPHICS
 70
     1
  9
$MEASUREMENT
 70
     0
  9
$CELWEIGHT
370
    -1
  9
$ENDCAPS
280
     0
  9
$JOINSTYLE
280
     0
  9
$LWDISPLAY
290
     0
  9
$INSUNITS
 70
     0
  9
$HYPERLINKBASE
  1

  9
$STYLESHEET
  1

  9
$XEDIT
290
     1
  9
$CEPSNTYPE
380
     0
  9
$PSTYLEMODE
290
     1
  9
$FINGERPRINTGUID
  2
{99277037-C77D-11D5-A918-0050DADE2D45}
  9
$VERSIONGUID
  2
{EEDA06F4-2821-4C87-A750-D9FE5D7506EB}
  9
$EXTNAMES
290
     1
  9
$PSVPSCALE
 40
0.0
  9
$OLESTARTUP
290
     0
  0
ENDSEC
  0
SECTION
  2
CLASSES
  0
CLASS
  1
DICTIONARYVAR
  2
AcDbDictionaryVar
  3
ObjectDBX Classes
 90
        0
280
     0
281
     0
  0
CLASS
  1
ACDBDICTIONARYWDFLT
  2
AcDbDictionaryWithDefault
  3
ObjectDBX Classes
 90
        0
280
     0
281
     0
  0
CLASS
  1
ACDBPLACEHOLDER
  2
AcDbPlaceHolder
  3
ObjectDBX Classes
 90
        0
280
     0
281
     0
  0
CLASS
  1
LAYOUT
  2
AcDbLayout
  3
ObjectDBX Classes
 90
        0
280
     0
281
     0
  0
CLASS
  1
MATERIAL
  2
AcDbMaterial
  3
ObjectDBX Classes
 90
     1153
280
     0
281
     0
  0
CLASS
  1
VISUALSTYLE
  2
AcDbVisualStyle
  3
ObjectDBX Classes
 90
     4095
280
     0
281
     0
  0
CLASS
  1
TABLESTYLE
  2
AcDbTableStyle
  3
ObjectDBX Classes
 90
     4095
280
     0
281
     0
  0
CLASS
  1
SCALE
  2
AcDbScale
  3
ObjectDBX Classes
 90
     1153
280
     0
281
     0
  0
CLASS
  1
MLEADERSTYLE
  2
AcDbMLeaderStyle
  3
ACDB_MLEADERSTYLE_CLASS
 90
     4095
280
     0
281
     0
  0
CLASS
  1
ACME_DOCUMENT
  2
AcMeDbDoc
  3
AcMeServices
 90
     1024
280
     0
281
     0
  0
CLASS
  1
AMGSETTINGSOBJ
  2
AmgSettingsObj
  3
"AcadM|Product Description: AutoCAD Mechanical|Company: Autodesk, Inc."
 90
     1024
280
     0
281
     0
  0
CLASS
  1
AMGOBJPROPCFG
  2
AmgObjPropCfg
  3
"AmgLay|Product Description: AutoCAD Mechanical|Company: Autodesk, Inc."
 90
     1025
280
     0
281
     0
  0
CLASS
  1
ACMESCOPE
  2
AcMeScope
  3
AcMeServices
 90
     1024
280
     0
281
     0
  0
CLASS
  1
ACMECOMMANDHISTORY
  2
AcMeCommandHistory
  3
AcMeServices
 90
     1024
280
     0
281
     0
  0
CLASS
  1
ACIMSYSVARMAN
  2
AcImSysVarManager
  3
AcMeServices
 90
     1024
280
     0
281
     0
  0
CLASS
  1
ACIMINTSYSVAR
  2
AcImIntSysVar
  3
AcMeServices
 90
     1024
280
     0
281
     0
  0
CLASS
  1
ACMEDRAWINGMAN
  2
AcMeDrawingMan
  3
AcMeServices
 90
     1024
280
     0
281
     0
  0
CLASS
  1
ACMEVIEW
  2
AcMeView
  3
AcMeServices
 90
     1024
280
     0
281
     0
  0
CLASS
  1
ACDBENTITYCACHE
  2
AcMeEntityCache
  3
AcMeServices
 90
     1024
280
     0
281
     0
  0
CLASS
  1
ACMESTATEMGR
  2
AcMeStateMgr
  3
AcMeServices
 90
     1024
280
     0
281
     0
  0
CLASS
  1
ACGREFMASTER
  2
AcGrefMaster
  3
AcAttribServices
 90
     1024
280
     0
281
     0
  0
CLASS
  1
AM_DRAWING_MGR
  2
AcDmDwgMgr
  3
AcMechDwgViewMgmt
 90
     1024
280
     0
281
     0
  0
CLASS
  1
AM_DWG_DOCUMENT
  2
AcDmDwgDocument
  3
AcMechDwgViewMgmt
 90
     1024
280
     0
281
     0
  0
CLASS
  1
AM_DWG_SHEET
  2
AcDmSheet
  3
AcMechDwgViewMgmt
 90
     1024
280
     0
281
     0
  0
CLASS
  1
AM_VIEWDIMPARMAP
  2
AcDmViewDimParMap
  3
AcMechDwgViewMgmt
 90
     1024
280
     0
281
     0
  0
CLASS
  1
AMDTINTERNALREACTOR
  2
AmdtInternalReactor
  3
AcMeServices
 90
     1024
280
     0
281
     0
  0
CLASS
  1
ACIMREALSYSVAR
  2
AcImRealSysVar
  3
AcMeServices
 90
     1024
280
     0
281
     0
  0
CLASS
  1
AM_DWGMGR_NAME
  2
AcDmDwgMgrName
  3
AcMechDwgViewMgmt
 90
     1024
280
     0
281
     0
  0
CLASS
  1
ACME_DATABASE
  2
AcMeDbDatabase
  3
AcMeServices
 90
     1024
280
     0
281
     0
  0
CLASS
  1
ACRFINSADJUSTERMGR
  2
AcRfInsAdjusterMgr
  3
AcMeServices
 90
     1024
280
     0
281
     0
  0
CLASS
  1
ACGREFACADMASTER
  2
AcGrefacadMaster
  3
AcGrefServices
 90
     1024
280
     0
281
     0
  0
CLASS
  1
AMDTMENUSTATEMGR
  2
AmdtMenuStateMgr
  3
McadcomServices
 90
     1024
280
     0
281
     0
  0
CLASS
  1
AMDTMCOMMENUSTATE
  2
AmdtMcomMenuState
  3
McadcomServices
 90
     1024
280
     0
281
     0
  0
CLASS
  1
AMIMASTER
  2
AmiMaster
  3
AmiServices
 90
     1024
280
     0
281
     0
  0
CLASS
  1
MAPIAMMOUDLE
  2
MApiAmModule
  3
MApiAmServices
 90
     1024
280
     0
281
     0
  0
CLASS
  1
ACIMSTRSYSVAR
  2
AcImStrSysVar
  3
AcMeServices
 90
     1024
280
     0
281
     0
  0
CLASS
  1
AMDTADMENUSTATE
  2
AmdtAdMenuState
  3
DesignerServices
 90
     1024
280
     0
281
     0
  0
CLASS
  1
ADAPPL
  2
AcAdAppl
  3
DesignerServices
 90
     1024
280
     0
281
     0
  0
CLASS
  1
DEPMGR
  2
AcAdDepMgr
  3
DesignerServices
 90
     1024
280
     0
281
     0
  0
CLASS
  1
PARAMMGR
  2
AcAdParamMgr
  3
DesignerServices
 90
     1024
280
     0
281
     0
  0
CLASS
  1
PARAMSCOPE
  2
AcAdParamScope
  3
DesignerServices
 90
     1024
280
     0
281
     0
  0
CLASS
  1
NAMEDAPPL
  2
AcAdNamedAppl
  3
DesignerServices
 90
     1024
280
     0
281
     0
  0
CLASS
  1
AMDTDMMENUSTATE
  2
AmdtDmMenuState
  3
AcMechDwgViewMgmt
 90
     1024
280
     0
281
     0
  0
CLASS
  1
AMDTAMMENUSTATE
  2
AmdtAmMenuState
  3
DesignerAssemblies
 90
     1024
280
     0
281
     0
  0
CLASS
  1
ACAMPROJECT
  2
AcAmProject
  3
DesignerAssemblies
 90
     1024
280
     0
281
     0
  0
CLASS
  1
ACAMGRCOMPDEF
  2
AcAmGrCompDef
  3
DesignerAssemblies
 90
     1024
280
     0
281
     0
  0
CLASS
  1
ACAMCOMPDEF
  2
AcAmCompDef
  3
DesignerAssemblies
 90
     1024
280
     0
281
     0
  0
CLASS
  1
ACAMCOMPDEFMGR
  2
AcAmCompDefMgr
  3
DesignerAssemblies
 90
     1024
280
     0
281
     0
  0
CLASS
  1
AMCONTEXTMGR
  2
AcAmContextMgr
  3
DesignerAssemblies
 90
     1024
280
     0
281
     0
  0
CLASS
  1
ACAMCONTEXTMODELER
  2
AcAmContextModeler
  3
DesignerAssemblies
 90
     1024
280
     0
281
     0
  0
CLASS
  1
ACMDATADICTIONARY
  2
AcmDataDictionary
  3
"AcmSymBB|Product Description: AutoCAD Mechanical|Company: Autodesk, Inc."
 90
     1024
280
     0
281
     0
  0
CLASS
  1
CATALOGSTATE
  2
AcAmCatalogState
  3
DesignerAssemblies
 90
     1024
280
     0
281
     0
  0
CLASS
  1
ACAMGRCOMPDEFSET
  2
AcAmGrCompDefSet
  3
DesignerAssemblies
 90
     1024
280
     0
281
     0
  0
CLASS
  1
AMDTBROWSERDBTAB
  2
AmdtBrowserDbTab
  3
McadcomServices
 90
     1024
280
     0
281
     0
  0
CLASS
  1
CBROWSERAPPOBJECT
  2
CBrowserAppObject
  3
McadcomServices
 90
     1024
280
     0
281
     0
  0
CLASS
  1
DM_PLACEHOLDER
  2
AcDmSelsetPlaceholder
  3
AcMechDwgViewMgmt
 90
     1024
280
     0
281
     0
  0
CLASS
  1
ACMSTANDARDANSI
  2
AcmStandardANSI
  3
"Amdt_StdImp|Product Description: AutoCAD Mechanical|Company: Autodesk, Inc."
 90
     1024
280
     0
281
     0
  0
CLASS
  1
ACMSURFSTANDARDANSI
  2
AcmSurfTextStdANSI
  3
"Amdt_StdImp|Product Description: AutoCAD Mechanical|Company: Autodesk, Inc."
 90
     1024
280
     0
281
     0
  0
CLASS
  1
ACMFCFSTANDARDANSI
  2
AcmFCFStdANSI
  3
"Amdt_StdImp|Product Description: AutoCAD Mechanical|Company: Autodesk, Inc."
 90
     1024
280
     0
281
     0
  0
CLASS
  1
ACMWELDSTANDARDANSI
  2
AcmWeldingStdANSI
  3
"Amdt_StdImp|Product Description: AutoCAD Mechanical|Company: Autodesk, Inc."
 90
     1024
280
     0
281
     0
  0
CLASS
  1
ACMIDSTANDARDANSI
  2
AcmIdStdANSI
  3
"Amdt_StdImp|Product Description: AutoCAD Mechanical|Company: Autodesk, Inc."
 90
     1024
280
     0
281
     0
  0
CLASS
  1
ACMDATUMSTANDARDANSI
  2
AcmDatumStdANSI
  3
"Amdt_StdImp|Product Description: AutoCAD Mechanical|Company: Autodesk, Inc."
 90
     1024
280
     0
281
     0
  0
CLASS
  1
ACMBOMSTANDARDANSI
  2
AcmBOMStdANSI
  3
"Amdt_StdImp|Product Description: AutoCAD Mechanical|Company: Autodesk, Inc."
 90
     1024
280
     0
281
     0
  0
CLASS
  1
ACMDETAILSTANDARDANSI
  2
AmdtDetailSymStdANSI
  3
"Amdt_StdImp|Product Description: AutoCAD Mechanical|Company: Autodesk, Inc."
 90
     1024
280
     0
281
     0
  0
CLASS
  1
ACMSECTIONSTANDARDANSI
  2
AmdtSectionSymStdANSI
  3
"Amdt_StdImp|Product Description: AutoCAD Mechanical|Company: Autodesk, Inc."
 90
     1024
280
     0
281
     0
  0
CLASS
  1
ACMCENTERLINESTANDARDANSI
  2
AmdtCenterLineStdANSI
  3
"Amdt_StdImp|Product Description: AutoCAD Mechanical|Company: Autodesk, Inc."
 90
     1024
280
     0
281
     0
  0
CLASS
  1
ACMTHREADLINESTANDARDANSI
  2
AmdtThreadLineStdANSI
  3
"Amdt_StdImp|Product Description: AutoCAD Mechanical|Company: Autodesk, Inc."
 90
     1024
280
     0
281
     0
  0
CLASS
  1
ACMNOTESTANDARDANSI
  2
AmdtNoteStdANSI
  3
"Amdt_StdImp|Product Description: AutoCAD Mechanical|Company: Autodesk, Inc."
 90
     1024
280
     0
281
     0
  0
CLASS
  1
ACMTAPERSTANDARDANSI
  2
AcmTaperStdANSI
  3
"Amdt_StdImp|Product Description: AutoCAD Mechanical|Company: Autodesk, Inc."
 90
     1024
280
     0
281
     0
  0
CLASS
  1
ACMANOOTATIONVIEWSTANDARDANSI
  2
AmdtAnViewStdANSI
  3
"Amdt_StdImp|Product Description: AutoCAD Mechanical|Company: Autodesk, Inc."
 90
     1024
280
     0
281
     0
  0
CLASS
  1
ACAMGLAYSTD
  2
AcAmgLayStd
  3
"AmgLay|Product Description: AutoCAD Mechanical|Company: Autodesk, Inc."
 90
     1024
280
     0
281
     0
  0
CLASS
  1
ACAMGDIMSTD
  2
AcAmgDimStd
  3
"AmgDim|Product Description: AutoCAD Mechanical|Company: Autodesk, Inc."
 90
     1024
280
     0
281
     0
  0
CLASS
  1
ACAMGHOLECHARTSTDANSI
  2
AcAmgHoleChartStdANSI
  3
AmgDim|Product Description: AutoCAD Mechanical|Company: Autodesk, Inc.
 90
     1024
280
     0
281
     0
  0
CLASS
  1
ACAMGTITLESTD
  2
AcAmgTitleStd
  3
"AmgTitle|Product Description: AutoCAD Mechanical|Company: Autodesk, Inc."
 90
     4095
280
     0
281
     0
  0
CLASS
  1
AMDTNOTETEMPLATEDB
  2
AmdtNoteTemplateDB
  3
AcmSymBB|Product Description: AutoCAD Mechanical|Company: Autodesk, Inc.
 90
     1024
280
     0
281
     0
  0
CLASS
  1
ACAMGFILTERDAT
  2
AcAmgFilterDat
  3
"AcadM|Product Description: AutoCAD Mechanical|Company: Autodesk, Inc."
 90
     1024
280
     0
281
     0
  0
CLASS
  1
SORTENTSTABLE
  2
AcDbSortentsTable
  3
ObjectDBX Classes
 90
        0
280
     0
281
     0
  0
CLASS
  1
ACMSTANDARDDIN
  2
AcmStandardDIN
  3
"Amdt_StdImp|Product Description: AutoCAD Mechanical|Company: Autodesk, Inc."
 90
     1024
280
     0
281
     0
  0
CLASS
  1
AMDTEDGESTANDARDDIN13715
  2
AmdtEdgeStdDIN13715
  3
"Amdt_StdImp|Product Description: AutoCAD Mechanical|Company: Autodesk, Inc."
 90
     1024
280
     0
281
     0
  0
CLASS
  1
ACMSURFSTANDARDDIN2002
  2
AcmSurfTextStdDIN2002
  3
"Amdt_StdImp|Product Description: AutoCAD Mechanical|Company: Autodesk, Inc."
 90
     1024
280
     0
281
     0
  0
CLASS
  1
ACMFCFSTANDARDDIN
  2
AcmFCFStdDIN
  3
"Amdt_StdImp|Product Description: AutoCAD Mechanical|Company: Autodesk, Inc."
 90
     1024
280
     0
281
     0
  0
CLASS
  1
ACMWELDSTANDARDDIN
  2
AcmWeldingStdDIN
  3
"Amdt_StdImp|Product Description: AutoCAD Mechanical|Company: Autodesk, Inc."
 90
     1024
280
     0
281
     0
  0
CLASS
  1
ACMIDSTANDARDDIN
  2
AcmIdStdDIN
  3
"Amdt_StdImp|Product Description: AutoCAD Mechanical|Company: Autodesk, Inc."
 90
     1024
280
     0
281
     0
  0
CLASS
  1
ACMDATUMSTANDARDDIN
  2
AcmDatumStdDIN
  3
"Amdt_StdImp|Product Description: AutoCAD Mechanical|Company: Autodesk, Inc."
 90
     1024
280
     0
281
     0
  0
CLASS
  1
ACMBOMSTANDARDDIN
  2
AcmBOMStdDIN
  3
"Amdt_StdImp|Product Description: AutoCAD Mechanical|Company: Autodesk, Inc."
 90
     1024
280
     0
281
     0
  0
CLASS
  1
ACMDETAILSTANDARDDIN
  2
AmdtDetailSymStdDIN
  3
"Amdt_StdImp|Product Description: AutoCAD Mechanical|Company: Autodesk, Inc."
 90
     1024
280
     0
281
     0
  0
CLASS
  1
ACMSECTIONSTANDARDDIN
  2
AmdtSectionSymStdDIN
  3
"Amdt_StdImp|Product Description: AutoCAD Mechanical|Company: Autodesk, Inc."
 90
     1024
280
     0
281
     0
  0
CLASS
  1
ACMCENTERLINESTANDARDDIN
  2
AmdtCenterLineStdDIN
  3
"Amdt_StdImp|Product Description: AutoCAD Mechanical|Company: Autodesk, Inc."
 90
     1024
280
     0
281
     0
  0
CLASS
  1
ACMTHREADLINESTANDARDDIN
  2
AmdtThreadLineStdDIN
  3
"Amdt_StdImp|Product Description: AutoCAD Mechanical|Company: Autodesk, Inc."
 90
     1024
280
     0
281
     0
  0
CLASS
  1
ACMNOTESTANDARDDIN
  2
AmdtNoteStdDIN
  3
"Amdt_StdImp|Product Description: AutoCAD Mechanical|Company: Autodesk, Inc."
 90
     1024
280
     0
281
     0
  0
CLASS
  1
ACMTAPERSTANDARDDIN
  2
AcmTaperStdDIN
  3
"Amdt_StdImp|Product Description: AutoCAD Mechanical|Company: Autodesk, Inc."
 90
     1024
280
     0
281
     0
  0
CLASS
  1
ACMANOOTATIONVIEWSTANDARDDIN
  2
AmdtAnViewStdDIN
  3
"Amdt_StdImp|Product Description: AutoCAD Mechanical|Company: Autodesk, Inc."
 90
     1024
280
     0
281
     0
  0
CLASS
  1
ACAMGHOLECHARTSTDDIN
  2
AcAmgHoleChartStdDIN
  3
AmgDim|Product Description: AutoCAD Mechanical|Company: Autodesk, Inc.
 90
     1024
280
     0
281
     0
  0
CLASS
  1
ACMDATAENTRYBLOCK
  2
AcmDataEntryBlock
  3
AcmSymBB|Product Description: AutoCAD Mechanical|Company: Autodesk, Inc.
 90
     1024
280
     0
281
     0
  0
CLASS
  1
CAMSSTRUCTBTNSTATE
  2
StructBtnState
  3
DesignerAssemblies
 90
     1024
280
     0
281
     0
  0
CLASS
  1
CELLSTYLEMAP
  2
AcDbCellStyleMap
  3
ObjectDBX Classes
 90
     1152
280
     0
281
     0
  0
ENDSEC
  0
SECTION
  2
TABLES
  0
TABLE
  2
VPORT
  5
8
330
0
100
AcDbSymbolTable
 70
     1
  0
VPORT
  5
241
330
8
100
AcDbSymbolTableRecord
100
AcDbViewportTableRecord
  2
*Active
 70
     0
 10
0.0
 20
0.0
 11
1.0
 21
1.0
 12
1049.986223957252
 22
742.5126819344152
 13
0.0
 23
0.0
 14
10.0
 24
10.0
 15
20.0
 25
20.0
 16
0.0
 26
0.0
 36
1.0
 17
0.0
 27
0.0
 37
0.0
 40
1645.858799828219
 41
1.54244762954796
 42
50.0
 43
0.0
 44
0.0
 50
0.0
 51
0.0
 71
     0
 72
   100
 73
     1
 74
     1
 75
     0
 76
     0
 77
     0
 78
     0
281
     0
 65
     1
110
0.0
120
0.0
130
0.0
111
1.0
121
0.0
131
0.0
112
0.0
122
1.0
132
0.0
 79
     0
146
0.0
  0
ENDTAB
  0
TABLE
  2
LTYPE
  5
5
330
0
100
AcDbSymbolTable
 70
    24
  0
LTYPE
  5
11
330
5
100
AcDbSymbolTableRecord
100
AcDbLinetypeTableRecord
  2
BYBLOCK
 70
     0
  3

 72
    65
 73
     0
 40
0.0
  0
LTYPE
  5
12
330
5
100
AcDbSymbolTableRecord
100
AcDbLinetypeTableRecord
  2
BYLAYER
 70
     0
  3

 72
    65
 73
     0
 40
0.0
  0
LTYPE
  5
13
330
5
100
AcDbSymbolTableRecord
100
AcDbLinetypeTableRecord
  2
CONTINUOUS
 70
     0
  3
Solid line
 72
    65
 73
     0
 40
0.0
  0
LTYPE
  5
2E
330
5
100
AcDbSymbolTableRecord
100
AcDbLinetypeTableRecord
  2
AUSGEZOGEN
 70
     0
  3
Ausgezogene Linie
 72
    65
 73
     0
 40
0.0
  0
LTYPE
  5
2F
330
5
100
AcDbSymbolTableRecord
100
AcDbLinetypeTableRecord
  2
PHANTOM
 70
     0
  3
______  __  __  ______  __  __  ______  __  __ 
 72
    65
 73
     6
 40
2.5
 49
1.25
 74
     0
 49
-0.25
 74
     0
 49
0.25
 74
     0
 49
-0.25
 74
     0
 49
0.25
 74
     0
 49
-0.25
 74
     0
  0
LTYPE
  5
30
330
5
100
AcDbSymbolTableRecord
100
AcDbLinetypeTableRecord
  2
STRICHPUNKT
 70
     0
  3
__ . __ . __ . __ . __ . __ . __ . __ . __ . __
 72
    65
 73
     4
 40
1.0
 49
0.5
 74
     0
 49
-0.25
 74
     0
 49
0.0
 74
     0
 49
-0.25
 74
     0
  0
LTYPE
  5
31
330
5
100
AcDbSymbolTableRecord
100
AcDbLinetypeTableRecord
  2
GETRENNT
 70
     0
  3
____ . . ____ . . ____ . . ____ . . ____ . . __
 72
    65
 73
     6
 40
1.25
 49
0.5
 74
     0
 49
-0.25
 74
     0
 49
0.0
 74
     0
 49
-0.25
 74
     0
 49
0.0
 74
     0
 49
-0.25
 74
     0
  0
LTYPE
  5
32
330
5
100
AcDbSymbolTableRecord
100
AcDbLinetypeTableRecord
  2
GESTRICHELT
 70
     0
  3
__ __ __ __ __ __ __ __ __ __ __ __ __ __ __ __
 72
    65
 73
     2
 40
0.75
 49
0.5
 74
     0
 49
-0.25
 74
     0
  0
LTYPE
  5
29F
330
5
100
AcDbSymbolTableRecord
100
AcDbLinetypeTableRecord
  2
AM_ISO02W050
 70
     0
  3
__ __ __ __ __ __ __ __ __ __ __ __ __ __ __
 72
    65
 73
     2
 40
7.5
 49
6.0
 74
     0
 49
-1.5
 74
     0
  0
LTYPE
  5
2A0
330
5
100
AcDbSymbolTableRecord
100
AcDbLinetypeTableRecord
  2
AM_ISO08W050
 70
     0
  3
____ . ____ . ____ . ____ . ____ . ____ . ____
 72
    65
 73
     4
 40
18.0
 49
12.0
 74
     0
 49
-1.5
 74
     0
 49
3.0
 74
     0
 49
-1.5
 74
     0
  0
LTYPE
  5
2A1
330
5
100
AcDbSymbolTableRecord
100
AcDbLinetypeTableRecord
  2
AM_ISO09W050
 70
     0
  3
_____ . . _____ . . _____ . . ____ .. ____
 72
    65
 73
     6
 40
22.5
 49
12.0
 74
     0
 49
-1.5
 74
     0
 49
3.0
 74
     0
 49
-1.5
 74
     0
 49
3.0
 74
     0
 49
-1.5
 74
     0
  0
LTYPE
  5
2A2
330
5
100
AcDbSymbolTableRecord
100
AcDbLinetypeTableRecord
  2
Amconstr
 70
     0
  3
_______________________
 72
    65
 73
     2
 40
9999.0
 49
9999.0
 74
     0
 49
0.0
 74
     0
  0
LTYPE
  5
2A3
330
5
100
AcDbSymbolTableRecord
100
AcDbLinetypeTableRecord
  2
AM_ISO08W050x2
 70
     0
  3
__ . __ . __ . __ . __ . __
 72
    65
 73
     4
 40
9.0
 49
6.0
 74
     0
 49
-0.75
 74
     0
 49
1.5
 74
     0
 49
-0.75
 74
     0
  0
LTYPE
  5
2A4
330
5
100
AcDbSymbolTableRecord
100
AcDbLinetypeTableRecord
  2
AM_ISO02W050x2
 70
     0
  3
 _ _ _ _ _ _ _ _ _ _ _ _
 72
    65
 73
     2
 40
3.75
 49
3.0
 74
     0
 49
-0.75
 74
     0
  0
LTYPE
  5
2A7
330
5
100
AcDbSymbolTableRecord
100
AcDbLinetypeTableRecord
  2
Amzigzag
 70
     0
  3
/\/-/\/-/\/-/\/-/\/-/\/
 72
    65
 73
     2
 40
11.0001
 49
0.0001
 74
     4
 75
   136
340
2A6
 46
0.04
 50
0.0
 44
0.0
 45
0.0
 49
-11.0
 74
     0
  0
LTYPE
  5
2D5
330
5
100
AcDbSymbolTableRecord
100
AcDbLinetypeTableRecord
  2
HIDDEN
 70
     0
  3
Verdeckt
 72
    65
 73
     2
 40
0.375
 49
0.25
 74
     0
 49
-0.125
 74
     0
  0
LTYPE
  5
2D6
330
5
100
AcDbSymbolTableRecord
100
AcDbLinetypeTableRecord
  2
PHANTOM2
 70
     0
  3
Phantom (.5x) ___ _ _ ___ _ _ ___ _ _ ___ _ _
 72
    65
 73
     6
 40
1.25
 49
0.625
 74
     0
 49
-0.125
 74
     0
 49
0.125
 74
     0
 49
-0.125
 74
     0
 49
0.125
 74
     0
 49
-0.125
 74
     0
  0
LTYPE
  5
2D7
330
5
100
AcDbSymbolTableRecord
100
AcDbLinetypeTableRecord
  2
CENTER
 70
     0
  3
Mitte ____ _ ____ _ ____ _ ____ _ ____ _ ____
 72
    65
 73
     4
 40
2.0
 49
1.25
 74
     0
 49
-0.25
 74
     0
 49
0.25
 74
     0
 49
-0.25
 74
     0
  0
LTYPE
  5
327
330
5
100
AcDbSymbolTableRecord
100
AcDbLinetypeTableRecord
  2
CENTER2
 70
     0
  3
Center (.5x) ___ _ ___ _ ___ _ ___ _ ___ _ ___
 72
    65
 73
     4
 40
1.125
 49
0.75
 74
     0
 49
-0.125
 74
     0
 49
0.125
 74
     0
 49
-0.125
 74
     0
  0
LTYPE
  5
328
330
5
100
AcDbSymbolTableRecord
100
AcDbLinetypeTableRecord
  2
HIDDEN2
 70
     0
  3
Hidden (.5x) _ _ _ _ _ _ _ _ _ _ _ _ _ _ _ _ _
 72
    65
 73
     2
 40
0.1875
 49
0.125
 74
     0
 49
-0.0625
 74
     0
  0
LTYPE
  5
329
330
5
100
AcDbSymbolTableRecord
100
AcDbLinetypeTableRecord
  2
Amzigzag2
 70
     0
  3
/\/-/\/-/\/-/\/-/\/-/\/
 72
    65
 73
     2
 40
0.4401
 49
0.0001
 74
     4
 75
   136
340
2A6
 46
0.0016
 50
0.0
 44
0.0
 45
0.0
 49
-0.4400000000000001
 74
     0
  0
LTYPE
  5
32B
330
5
100
AcDbSymbolTableRecord
100
AcDbLinetypeTableRecord
  2
ACANSTGB
 70
     0
  3
__ . . __ . .
 72
    65
 73
     6
 40
0.35433070866
 49
0.15748031496
 74
     0
 49
-0.03937007874
 74
     0
 49
0.03937007874
 74
     0
 49
-0.03937007874
 74
     0
 49
0.03937007874
 74
     0
 49
-0.03937007874
 74
     0
  0
LTYPE
  5
32C
330
5
100
AcDbSymbolTableRecord
100
AcDbLinetypeTableRecord
  2
ACANSTGL
 70
     0
  3
_ _ _ _ _
 72
    65
 73
     2
 40
0.11811023622
 49
0.07874015748
 74
     0
 49
-0.03937007874
 74
     0
  0
LTYPE
  5
4A0
330
5
100
AcDbSymbolTableRecord
100
AcDbLinetypeTableRecord
  2
ACDINWELD
 70
     0
  3
_ _ _ _ _
 72
    65
 73
     2
 40
2.0
 49
2.0
 74
     0
 49
-1.0
 74
     0
  0
LTYPE
  5
4A1
330
5
100
AcDbSymbolTableRecord
100
AcDbLinetypeTableRecord
  2
ACDINTGB
 70
     0
  3
__ . . __ . .
 72
    65
 73
     6
 40
9.0
 49
4.0
 74
     0
 49
-1.0
 74
     0
 49
1.0
 74
     0
 49
-1.0
 74
     0
 49
1.0
 74
     0
 49
-1.0
 74
     0
  0
LTYPE
  5
4A2
330
5
100
AcDbSymbolTableRecord
100
AcDbLinetypeTableRecord
  2
ACDINTGL
 70
     0
  3
_ _ _ _ _
 72
    65
 73
     2
 40
3.0
 49
2.0
 74
     0
 49
-1.0
 74
     0
  0
ENDTAB
  0
TABLE
  2
LAYER
  5
2
102
{ACAD_XDICTIONARY
360
3AC
102
}
330
0
100
AcDbSymbolTable
 70
    24
  0
LAYER
  5
E
102
{ACAD_XDICTIONARY
360
898
102
}
330
2
100
AcDbSymbolTableRecord
100
AcDbLayerTableRecord
  2
0
 70
     0
 62
     7
  6
CONTINUOUS
370
    -3
390
19D
  0
LAYER
  5
3B
102
{ACAD_XDICTIONARY
360
89A
102
}
330
2
100
AcDbSymbolTableRecord
100
AcDbLayerTableRecord
  2
SICHTBAR
 70
     0
 62
     7
  6
CONTINUOUS
370
    -3
390
19D
  0
LAYER
  5
3C
102
{ACAD_XDICTIONARY
360
89C
102
}
330
2
100
AcDbSymbolTableRecord
100
AcDbLayerTableRecord
  2
MITTE
 70
     0
 62
     1
  6
STRICHPUNKT
370
    -3
390
19D
  0
LAYER
  5
3D
102
{ACAD_XDICTIONARY
360
89E
102
}
330
2
100
AcDbSymbolTableRecord
100
AcDbLayerTableRecord
  2
TEXT50
 70
     0
 62
     7
  6
CONTINUOUS
370
    -3
390
19D
  0
LAYER
  5
3E
102
{ACAD_XDICTIONARY
360
8A0
102
}
330
2
100
AcDbSymbolTableRecord
100
AcDbLayerTableRecord
  2
TEXT35
 70
     0
 62
   143
  6
CONTINUOUS
370
    -3
390
19D
  0
LAYER
  5
3F
102
{ACAD_XDICTIONARY
360
8A2
102
}
330
2
100
AcDbSymbolTableRecord
100
AcDbLayerTableRecord
  2
TEXT25
 70
     0
 62
     3
  6
CONTINUOUS
370
    -3
390
19D
  0
LAYER
  5
41
102
{ACAD_XDICTIONARY
360
8A4
102
}
330
2
100
AcDbSymbolTableRecord
100
AcDbLayerTableRecord
  2
KOPF
 70
     0
 62
    12
  6
AUSGEZOGEN
370
    -3
390
19D
  0
LAYER
  5
43
102
{ACAD_XDICTIONARY
360
8A6
102
}
330
2
100
AcDbSymbolTableRecord
100
AcDbLayerTableRecord
  2
TEXT100
 70
     0
 62
     7
  6
CONTINUOUS
370
    -3
390
19D
  0
LAYER
  5
44
102
{ACAD_XDICTIONARY
360
8A8
102
}
330
2
100
AcDbSymbolTableRecord
100
AcDbLayerTableRecord
  2
SCHRAFF
 70
     0
 62
     6
  6
CONTINUOUS
370
    -3
390
19D
  0
LAYER
  5
46
102
{ACAD_XDICTIONARY
360
8AA
102
}
330
2
100
AcDbSymbolTableRecord
100
AcDbLayerTableRecord
  2
VERDECKT
 70
     0
 62
     2
  6
GESTRICHELT
370
    -3
390
19D
  0
LAYER
  5
47
102
{ACAD_XDICTIONARY
360
8AC
102
}
330
2
100
AcDbSymbolTableRecord
100
AcDbLayerTableRecord
  2
TEXT70
 70
     0
 62
     9
  6
CONTINUOUS
370
    -3
390
19D
  0
LAYER
  5
48
102
{ACAD_XDICTIONARY
360
8AE
102
}
330
2
100
AcDbSymbolTableRecord
100
AcDbLayerTableRecord
  2
GETRENNT
 70
     0
 62
     5
  6
GETRENNT
370
    -3
390
19D
  0
LAYER
  5
49
102
{ACAD_XDICTIONARY
360
8B0
102
}
330
2
100
AcDbSymbolTableRecord
100
AcDbLayerTableRecord
  2
DUENN
 70
     0
 62
     4
  6
CONTINUOUS
370
    -3
390
19D
  0
LAYER
  5
4A
102
{ACAD_XDICTIONARY
360
8B2
102
}
330
2
100
AcDbSymbolTableRecord
100
AcDbLayerTableRecord
  2
DUENN-18
 70
     0
 62
    94
  6
CONTINUOUS
370
    -3
390
19D
  0
LAYER
  5
4C
102
{ACAD_XDICTIONARY
360
8B4
102
}
330
2
100
AcDbSymbolTableRecord
100
AcDbLayerTableRecord
  2
BEMASS
 70
     0
 62
     3
  6
CONTINUOUS
370
    -3
390
19D
  0
LAYER
  5
4D
102
{ACAD_XDICTIONARY
360
8B6
102
}
330
2
100
AcDbSymbolTableRecord
100
AcDbLayerTableRecord
  2
BEMM
 70
     0
 62
     6
  6
CONTINUOUS
370
    -3
390
19D
  0
LAYER
  5
4E
330
2
100
AcDbSymbolTableRecord
100
AcDbLayerTableRecord
  2
DEFPOINTS
 70
     0
 62
     7
  6
CONTINUOUS
290
     0
370
    -3
390
19D
  0
LAYER
  5
4F
102
{ACAD_XDICTIONARY
360
8B8
102
}
330
2
100
AcDbSymbolTableRecord
100
AcDbLayerTableRecord
  2
BEMASS-25
 70
     0
 62
     3
  6
CONTINUOUS
370
    -3
390
19D
  0
LAYER
  5
50
102
{ACAD_XDICTIONARY
360
8BA
102
}
330
2
100
AcDbSymbolTableRecord
100
AcDbLayerTableRecord
  2
TEXT20
 70
     0
 62
     4
  6
CONTINUOUS
370
    -3
390
19D
  0
LAYER
  5
52
102
{ACAD_XDICTIONARY
360
8BC
102
}
330
2
100
AcDbSymbolTableRecord
100
AcDbLayerTableRecord
  2
KONTROLL-BEMM
 70
     0
 62
     1
  6
CONTINUOUS
370
    -3
390
19D
  0
LAYER
  5
336
102
{ACAD_XDICTIONARY
360
8BE
102
}
330
2
100
AcDbSymbolTableRecord
100
AcDbLayerTableRecord
  2
AM_BOR
 70
     0
 62
     7
  6
CONTINUOUS
370
    -3
390
19D
  0
LAYER
  5
4A3
102
{ACAD_XDICTIONARY
360
8C0
102
}
330
2
100
AcDbSymbolTableRecord
100
AcDbLayerTableRecord
  2
AM_5
 70
     0
 62
     3
  6
CONTINUOUS
370
    15
390
19D
  0
LAYER
  5
4A4
102
{ACAD_XDICTIONARY
360
8C2
102
}
330
2
100
AcDbSymbolTableRecord
100
AcDbLayerTableRecord
  2
PN
 70
     0
 62
     7
  6
CONTINUOUS
370
    -3
390
19D
  0
LAYER
  5
4A5
102
{ACAD_XDICTIONARY
360
8C4
102
}
330
2
100
AcDbSymbolTableRecord
100
AcDbLayerTableRecord
  2
RED
 70
     0
 62
     1
  6
CONTINUOUS
370
    -3
390
19D
  0
ENDTAB
  0
TABLE
  2
STYLE
  5
3
330
0
100
AcDbSymbolTable
 70
    20
  0
STYLE
  5
F
330
3
100
AcDbSymbolTableRecord
100
AcDbTextStyleTableRecord
  2
STANDARD
 70
     0
 40
0.0
 41
0.8
 50
0.0
 71
     0
 42
3.5
  3
SIMPLEX.SHX
  4

  0
STYLE
  5
1D
330
3
100
AcDbSymbolTableRecord
100
AcDbTextStyleTableRecord
  2
TEXT50
 70
     0
 40
5.0
 41
0.8
 50
0.0
 71
     0
 42
5.0
  3
isocp3.shx
  4

  0
STYLE
  5
1E
330
3
100
AcDbSymbolTableRecord
100
AcDbTextStyleTableRecord
  2
BEMSTIL
 70
     0
 40
0.0
 41
0.8
 50
0.0
 71
     0
 42
3.5
  3
simplex.shx
  4

  0
STYLE
  5
1F
330
3
100
AcDbSymbolTableRecord
100
AcDbTextStyleTableRecord
  2
BEMASS-25
 70
     0
 40
0.0
 41
0.8
 50
0.0
 71
     0
 42
2.5
  3
simplex.shx
  4

  0
STYLE
  5
20
330
3
100
AcDbSymbolTableRecord
100
AcDbTextStyleTableRecord
  2
TEXT100
 70
     0
 40
10.0
 41
0.8
 50
0.0
 71
     0
 42
2.5
  3
isocp3.shx
  4

  0
STYLE
  5
21
330
3
100
AcDbSymbolTableRecord
100
AcDbTextStyleTableRecord
  2
TEXT35
 70
     0
 40
3.5
 41
0.8
 50
0.0
 71
     0
 42
3.5
  3
isocp3.shx
  4

  0
STYLE
  5
22
330
3
100
AcDbSymbolTableRecord
100
AcDbTextStyleTableRecord
  2
TEXT70
 70
     0
 40
7.0
 41
0.8
 50
0.0
 71
     0
 42
7.0
  3
isocp3.shx
  4

  0
STYLE
  5
23
330
3
100
AcDbSymbolTableRecord
100
AcDbTextStyleTableRecord
  2
TEXT25
 70
     0
 40
2.5
 41
0.8
 50
0.0
 71
     0
 42
2.5
  3
isocp3.shx
  4

  0
STYLE
  5
28
330
3
100
AcDbSymbolTableRecord
100
AcDbTextStyleTableRecord
  2
ROMANS8
 70
     0
 40
2.1
 41
0.7
 50
0.0
 71
     0
 42
2.1
  3
ROMANS8.SHX
  4

  0
STYLE
  5
29
330
3
100
AcDbSymbolTableRecord
100
AcDbTextStyleTableRecord
  2
TEXT20
 70
     0
 40
2.0
 41
0.8
 50
0.0
 71
     0
 42
2.0
  3
isocp3.shx
  4

  0
STYLE
  5
2A
330
3
100
AcDbSymbolTableRecord
100
AcDbTextStyleTableRecord
  2
FUTURA
 70
     0
 40
10.0
 41
0.8
 50
0.0
 71
     0
 42
10.0
  3
futura.shx
  4

  0
STYLE
  5
2D
330
3
100
AcDbSymbolTableRecord
100
AcDbTextStyleTableRecord
  2
COMPLEX
 70
     0
 40
5.0
 41
0.8
 50
0.0
 71
     0
 42
5.0
  3
COMPLEX.SHX
  4

  0
STYLE
  5
2A6
330
3
100
AcDbSymbolTableRecord
100
AcDbTextStyleTableRecord
  2

 70
     1
 40
0.0
 41
1.0
 50
0.0
 71
     0
 42
2.5
  3
genltshp.shx
  4

  0
STYLE
  5
326
330
3
100
AcDbSymbolTableRecord
100
AcDbTextStyleTableRecord
  2
ACANSTS
 70
     0
 40
1.0
 41
1.0
 50
0.0
 71
     0
 42
2.5
  3
romans.shx
  4

  0
STYLE
  5
32A
330
3
100
AcDbSymbolTableRecord
100
AcDbTextStyleTableRecord
  2
ACANSGDT
 70
     0
 40
0.0
 41
1.0
 50
0.0
 71
     0
 42
2.5
  3
amgdt.shx
  4

  0
STYLE
  5
37A
330
3
100
AcDbSymbolTableRecord
100
AcDbTextStyleTableRecord
  2
ROMANC
 70
     0
 40
2.6
 41
0.8
 50
0.0
 71
     0
 42
2.6
  3
romanc
  4

  0
STYLE
  5
37B
330
3
100
AcDbSymbolTableRecord
100
AcDbTextStyleTableRecord
  2
SIMPLEX
 70
     0
 40
0.0
 41
1.0
 50
0.0
 71
     0
 42
3.5
  3
simplex
  4

  0
STYLE
  5
3AB
330
3
100
AcDbSymbolTableRecord
100
AcDbTextStyleTableRecord
  2
Logo
 70
     0
 40
5.0
 41
1.0
 50
0.0
 71
     0
 42
5.0
  3
sanssb__.ttf
  4

1001
ACAD
1000
SansSerif
1071
 33554946
  0
STYLE
  5
4A6
330
3
100
AcDbSymbolTableRecord
100
AcDbTextStyleTableRecord
  2

 70
     1
 40
0.0
 41
1.0
 50
0.0
 71
     0
 42
2.5
  3
ltypeshp.shx
  4

  0
STYLE
  5
4A7
330
3
100
AcDbSymbolTableRecord
100
AcDbTextStyleTableRecord
  2
ACDINGDT
 70
     0
 40
0.0
 41
1.0
 50
0.0
 71
     0
 42
3.5
  3
amgdt.shx
  4

  0
ENDTAB
  0
TABLE
  2
VIEW
  5
6
330
0
100
AcDbSymbolTable
 70
     2
  0
VIEW
  5
33
330
6
100
AcDbSymbolTableRecord
100
AcDbViewTableRecord
  2
KOMPLETT
 70
     0
 40
582.0
 10
407.0
 20
291.0
 41
814.0
 11
0.0
 21
0.0
 31
1.0
 12
0.0
 22
0.0
 32
0.0
 42
50.0
 43
0.0
 44
0.0
 50
0.0
 71
     0
281
     0
 72
     0
  0
ENDTAB
  0
TABLE
  2
UCS
  5
7
330
0
100
AcDbSymbolTable
 70
     0
  0
ENDTAB
  0
TABLE
  2
APPID
  5
9
330
0
100
AcDbSymbolTable
 70
    20
  0
APPID
  5
10
330
9
100
AcDbSymbolTableRecord
100
AcDbRegAppTableRecord
  2
ACAD
 70
     0
  0
APPID
  5
2AA
330
9
100
AcDbSymbolTableRecord
100
AcDbRegAppTableRecord
  2
MCAD_NO_VIS
 70
     0
  0
APPID
  5
2AB
330
9
100
AcDbSymbolTableRecord
100
AcDbRegAppTableRecord
  2
ACAD_TEMP_GRAPHIC
 70
     0
  0
APPID
  5
2D9
330
9
100
AcDbSymbolTableRecord
100
AcDbRegAppTableRecord
  2
AD_DRAW
 70
     0
  0
APPID
  5
2DC
330
9
100
AcDbSymbolTableRecord
100
AcDbRegAppTableRecord
  2
ACATTRIBSERVICES
 70
     0
  0
APPID
  5
2FC
330
9
100
AcDbSymbolTableRecord
100
AcDbRegAppTableRecord
  2
DESIGNERASSEMBLIES
 70
     0
  0
APPID
  5
302
330
9
100
AcDbSymbolTableRecord
100
AcDbRegAppTableRecord
  2
ACADM_DIM_EDIT
 70
     0
  0
APPID
  5
303
330
9
100
AcDbSymbolTableRecord
100
AcDbRegAppTableRecord
  2
AMDT_DM_ADJ
 70
     0
  0
APPID
  5
319
330
9
100
AcDbSymbolTableRecord
100
AcDbRegAppTableRecord
  2
ACAD_DSTYLE_DIMJAG
 70
     0
  0
APPID
  5
31A
330
9
100
AcDbSymbolTableRecord
100
AcDbRegAppTableRecord
  2
ACAD_DSTYLE_DIMBREAK
 70
     0
  0
APPID
  5
333
330
9
100
AcDbSymbolTableRecord
100
AcDbRegAppTableRecord
  2
GENIUS_GENSCREG_15
 70
     0
  0
APPID
  5
334
330
9
100
AcDbSymbolTableRecord
100
AcDbRegAppTableRecord
  2
GENIUS_GENODEF_13
 70
     0
  0
APPID
  5
335
330
9
100
AcDbSymbolTableRecord
100
AcDbRegAppTableRecord
  2
GENIUS_GENOBJ-N-SDF_13
 70
     0
  0
APPID
  5
4B0
330
9
100
AcDbSymbolTableRecord
100
AcDbRegAppTableRecord
  2
GENIUS_GENDTOL_13
 70
     0
  0
APPID
  5
911
330
9
100
AcDbSymbolTableRecord
100
AcDbRegAppTableRecord
  2
ACAD_MLEADERVER
 70
     0
  0
APPID
  5
912
330
9
100
AcDbSymbolTableRecord
100
AcDbRegAppTableRecord
  2
ACAD_DSTYLE_DIMARC_LENGTH_SYMBOL
 70
     0
  0
APPID
  5
913
330
9
100
AcDbSymbolTableRecord
100
AcDbRegAppTableRecord
  2
ACAD_DSTYLE_DIM_LINETYPE
 70
     0
  0
APPID
  5
914
330
9
100
AcDbSymbolTableRecord
100
AcDbRegAppTableRecord
  2
ACAD_DSTYLE_DIM_EXT1_LINETYPE
 70
     0
  0
APPID
  5
915
330
9
100
AcDbSymbolTableRecord
100
AcDbRegAppTableRecord
  2
ACAD_DSTYLE_DIM_EXT2_LINETYPE
 70
     0
  0
APPID
  5
916
330
9
100
AcDbSymbolTableRecord
100
AcDbRegAppTableRecord
  2
ACAD_DSTYLE_DIMJOGGED_JOGANGLE_SYMBOL
 70
     0
  0
ENDTAB
  0
TABLE
  2
DIMSTYLE
  5
A
330
0
100
AcDbSymbolTable
 70
    18
100
AcDbDimStyleTable
 71
     4
340
143
340
38
340
36
340
37
  0
DIMSTYLE
105
36
330
A
100
AcDbSymbolTableRecord
100
AcDbDimStyleTableRecord
  2
BEMM
 70
     0
 41
7.0
 42
0.0
 43
7.0
 44
2.0
 73
     0
 74
     0
 77
     1
 78
     8
140
5.0
141
3.0
146
0.5714285714285714
147
3.0
174
     1
176
     6
177
     6
178
     7
271
     1
272
     1
284
     8
285
     8
286
     8
289
     0
340
1D
  0
DIMSTYLE
105
37
330
A
100
AcDbSymbolTableRecord
100
AcDbDimStyleTableRecord
  2
BEMASS-25
 70
     0
 41
2.5
 42
0.0
 43
7.0
 44
1.399999999999999
 73
     0
 74
     0
 77
     1
 78
     8
140
2.5
141
3.0
146
1.166666666666666
147
1.399999999999999
174
     1
176
     3
177
     3
178
     3
271
     1
272
     1
278
    44
284
     8
285
     8
286
     8
289
     0
340
1F
371
    25
372
    25
  0
DIMSTYLE
105
38
330
A
100
AcDbSymbolTableRecord
100
AcDbDimStyleTableRecord
  2
STANDARD
 70
     0
 41
3.5
 42
0.0
 43
7.0
 44
2.0
 73
     0
 74
     0
 77
     1
 78
     8
140
4.0
141
3.0
146
0.875
147
2.0
174
     1
176
   256
177
   256
178
   256
271
     1
272
     1
284
     8
285
     8
286
     8
289
     0
340
F
  0
DIMSTYLE
105
143
330
A
100
AcDbSymbolTableRecord
100
AcDbDimStyleTableRecord
  2
BEMASS
 70
     0
 41
3.5
 42
0.0
 43
0.0
 44
1.399999999999999
 73
     0
 74
     0
 77
     1
 78
     8
140
3.5
141
3.0
146
0.875
147
2.0
172
     1
176
     3
177
     3
178
     3
271
     2
272
     2
278
    44
279
     2
284
     8
285
     8
286
     8
340
1E
371
    25
372
    25
  0
DIMSTYLE
105
318
102
{ACAD_REACTORS
330
308
102
}
330
A
100
AcDbSymbolTableRecord
100
AcDbDimStyleTableRecord
  2
AM_ANSI
 70
     0
  4
mm
 41
0.12
 42
0.05
 43
0.5
 44
0.1
 47
0.1
 48
0.1
 78
     7
 79
     2
140
0.12
141
0.0
146
0.71
147
0.06
176
   256
177
   256
178
     2
274
     4
284
     7
340
F
371
    -1
372
    -1
1001
ACAD_DSTYLE_DIMJAG
1070
   388
1040
1.5
1001
ACAD_DSTYLE_DIMBREAK
1070
   391
1040
0.125
1001
ACAD_DSTYLE_DIMARC_LENGTH_SYMBOL
1070
   379
1070
     1
1001
ACAD_DSTYLE_DIM_LINETYPE
1070
   380
1005
11
1001
ACAD_DSTYLE_DIM_EXT1_LINETYPE
1070
   381
1005
11
1001
ACAD_DSTYLE_DIM_EXT2_LINETYPE
1070
   382
1005
11
  0
DIMSTYLE
105
31B
330
A
100
AcDbSymbolTableRecord
100
AcDbDimStyleTableRecord
  2
AM_ANSI$3
 70
     0
  4
mm
 41
0.12
 42
0.05
 43
0.5
 44
0.1
 47
0.1
 48
0.1
 78
     7
 79
     2
140
0.12
141
0.0
146
0.71
147
0.06
176
   256
177
   256
178
     2
274
     4
284
     7
288
     1
289
     0
340
F
371
    -1
372
    -1
1001
ACAD_DSTYLE_DIMBREAK
1070
   391
1040
0.125
1001
ACAD_DSTYLE_DIMJAG
1070
   388
1040
1.5
1001
ACAD_DSTYLE_DIMARC_LENGTH_SYMBOL
1070
   379
1070
     1
1001
ACAD_DSTYLE_DIM_LINETYPE
1070
   380
1005
11
1001
ACAD_DSTYLE_DIM_EXT1_LINETYPE
1070
   381
1005
11
1001
ACAD_DSTYLE_DIM_EXT2_LINETYPE
1070
   382
1005
11
  0
DIMSTYLE
105
31C
330
A
100
AcDbSymbolTableRecord
100
AcDbDimStyleTableRecord
  2
AM_ANSI$4
 70
     0
  4
mm
 41
0.12
 42
0.05
 43
0.5
 44
0.1
 47
0.1
 48
0.1
 78
     7
 79
     2
140
0.12
141
0.0
146
0.71
147
0.06
176
   256
177
   256
178
     2
274
     4
284
     7
288
     1
289
     0
340
F
371
    -1
372
    -1
1001
ACAD_DSTYLE_DIMBREAK
1070
   391
1040
0.125
1001
ACAD_DSTYLE_DIMJAG
1070
   388
1040
1.5
1001
ACAD_DSTYLE_DIMARC_LENGTH_SYMBOL
1070
   379
1070
     1
1001
ACAD_DSTYLE_DIM_LINETYPE
1070
   380
1005
11
1001
ACAD_DSTYLE_DIM_EXT1_LINETYPE
1070
   381
1005
11
1001
ACAD_DSTYLE_DIM_EXT2_LINETYPE
1070
   382
1005
11
  0
DIMSTYLE
105
31D
330
A
100
AcDbSymbolTableRecord
100
AcDbDimStyleTableRecord
  2
AM_ANSI$7
 70
     0
  4
mm
 41
0.12
 42
0.05
 43
0.5
 44
0.1
 47
0.1
 48
0.1
 78
     7
 79
     2
140
0.12
141
0.0
146
0.71
147
0.06
176
   256
177
   256
178
     2
274
     4
284
     7
340
F
371
    -1
372
    -1
1001
ACAD_DSTYLE_DIMBREAK
1070
   391
1040
0.125
1001
ACAD_DSTYLE_DIMJAG
1070
   388
1040
1.5
1001
ACAD_DSTYLE_DIMARC_LENGTH_SYMBOL
1070
   379
1070
     1
1001
ACAD_DSTYLE_DIM_LINETYPE
1070
   380
1005
11
1001
ACAD_DSTYLE_DIM_EXT1_LINETYPE
1070
   381
1005
11
1001
ACAD_DSTYLE_DIM_EXT2_LINETYPE
1070
   382
1005
11
  0
DIMSTYLE
105
31E
330
A
100
AcDbSymbolTableRecord
100
AcDbDimStyleTableRecord
  2
AM_ANSI$SF
 70
     0
  4
mm
 41
0.12
 42
0.05
 43
0.5
 44
0.1
 47
0.1
 48
0.1
 75
     1
 76
     1
 78
     7
 79
     2
140
0.12
141
0.0
146
0.71
147
0.06
176
   256
177
   256
178
     2
274
     4
284
     7
340
F
371
    -1
372
    -1
1001
ACAD_DSTYLE_DIMBREAK
1070
   391
1040
0.125
1001
ACAD_DSTYLE_DIMJAG
1070
   388
1040
1.5
1001
ACAD_DSTYLE_DIMARC_LENGTH_SYMBOL
1070
   379
1070
     1
1001
ACAD_DSTYLE_DIM_LINETYPE
1070
   380
1005
11
1001
ACAD_DSTYLE_DIM_EXT1_LINETYPE
1070
   381
1005
11
1001
ACAD_DSTYLE_DIM_EXT2_LINETYPE
1070
   382
1005
11
  0
DIMSTYLE
105
323
330
A
100
AcDbSymbolTableRecord
100
AcDbDimStyleTableRecord
  2
AM_ANSI$SH
 70
     0
  4
mm
 41
0.12
 42
0.05
 43
0.5
 44
0.1
 47
0.1
 48
0.1
 75
     1
 76
     1
 78
     7
 79
     2
140
0.12
141
0.0
146
0.71
147
0.06
173
     1
176
   256
177
   256
178
     2
274
     4
284
     7
340
F
343
31F
371
    -1
372
    -1
1001
ACAD_DSTYLE_DIMBREAK
1070
   391
1040
0.125
1001
ACAD_DSTYLE_DIMJAG
1070
   388
1040
1.5
1001
ACAD_DSTYLE_DIMARC_LENGTH_SYMBOL
1070
   379
1070
     1
1001
ACAD_DSTYLE_DIM_LINETYPE
1070
   380
1005
11
1001
ACAD_DSTYLE_DIM_EXT1_LINETYPE
1070
   381
1005
11
1001
ACAD_DSTYLE_DIM_EXT2_LINETYPE
1070
   382
1005
11
  0
DIMSTYLE
105
4A8
102
{ACAD_REACTORS
330
673
330
674
330
675
330
856
330
857
330
858
102
}
330
A
100
AcDbSymbolTableRecord
100
AcDbDimStyleTableRecord
  2
ISO 35
 70
     0
 40
5.0
 41
3.5
 42
0.625
 43
10.0
 44
1.25
 73
     0
 74
     0
 77
     1
 78
     8
140
3.5
141
2.5
143
0.03937007874016
147
0.625
171
     3
172
     1
176
   256
177
   256
178
     3
271
     2
272
     2
274
     3
278
    44
283
     0
284
     8
340
F
  0
DIMSTYLE
105
4A9
102
{ACAD_REACTORS
330
679
102
}
330
A
100
AcDbSymbolTableRecord
100
AcDbDimStyleTableRecord
  2
AM_DIN
 70
     0
  4
"
 41
3.5
 42
1.0
 43
10.0
 44
1.0
 47
0.1
 48
0.1
 73
     0
 74
     0
 77
     1
 78
     8
 79
     2
140
3.5
141
0.0
143
0.0393701
146
0.71
147
1.5
172
     1
176
   256
177
   256
178
     2
271
     2
272
     3
274
     4
283
     0
284
     8
340
F
371
    -1
372
    -1
1001
ACAD_DSTYLE_DIMJAG
1070
   388
1040
1.5
1001
ACAD_DSTYLE_DIMBREAK
1070
   391
1040
3.75
1001
ACAD_DSTYLE_DIMJOGGED_JOGANGLE_SYMBOL
1070
   384
1040
1.570796326794896
1001
ACAD_DSTYLE_DIM_LINETYPE
1070
   380
1005
11
1001
ACAD_DSTYLE_DIM_EXT1_LINETYPE
1070
   381
1005
11
1001
ACAD_DSTYLE_DIM_EXT2_LINETYPE
1070
   382
1005
11
  0
DIMSTYLE
105
4AA
330
A
100
AcDbSymbolTableRecord
100
AcDbDimStyleTableRecord
  2
AM_DIN$3
 70
     0
  4
"
 41
3.5
 42
1.0
 43
10.0
 44
1.0
 47
0.1
 48
0.1
 73
     0
 77
     1
 78
     8
 79
     2
140
3.5
141
0.0
143
0.0393701
146
0.71
147
1.5
176
   256
177
   256
178
     2
271
     2
272
     3
274
     4
283
     0
284
     8
288
     1
289
     0
340
F
371
    -1
372
    -1
1001
ACAD_DSTYLE_DIMBREAK
1070
   391
1040
3.75
1001
ACAD_DSTYLE_DIMJAG
1070
   388
1040
1.5
1001
ACAD_DSTYLE_DIMJOGGED_JOGANGLE_SYMBOL
1070
   384
1040
1.570796326794896
1001
ACAD_DSTYLE_DIM_LINETYPE
1070
   380
1005
11
1001
ACAD_DSTYLE_DIM_EXT1_LINETYPE
1070
   381
1005
11
1001
ACAD_DSTYLE_DIM_EXT2_LINETYPE
1070
   382
1005
11
  0
DIMSTYLE
105
4AB
330
A
100
AcDbSymbolTableRecord
100
AcDbDimStyleTableRecord
  2
AM_DIN$4
 70
     0
  4
"
 41
3.5
 42
1.0
 43
10.0
 44
1.0
 47
0.1
 48
0.1
 73
     0
 77
     1
 78
     8
 79
     2
140
3.5
141
0.0
143
0.0393701
146
0.71
147
1.5
176
   256
177
   256
178
     2
271
     2
272
     3
274
     4
283
     0
284
     8
288
     1
289
     0
340
F
371
    -1
372
    -1
1001
ACAD_DSTYLE_DIMBREAK
1070
   391
1040
3.75
1001
ACAD_DSTYLE_DIMJAG
1070
   388
1040
1.5
1001
ACAD_DSTYLE_DIMJOGGED_JOGANGLE_SYMBOL
1070
   384
1040
1.570796326794896
1001
ACAD_DSTYLE_DIM_LINETYPE
1070
   380
1005
11
1001
ACAD_DSTYLE_DIM_EXT1_LINETYPE
1070
   381
1005
11
1001
ACAD_DSTYLE_DIM_EXT2_LINETYPE
1070
   382
1005
11
  0
DIMSTYLE
105
4AC
330
A
100
AcDbSymbolTableRecord
100
AcDbDimStyleTableRecord
  2
AM_DIN$6
 70
     0
  4
"
 41
3.5
 42
1.0
 43
10.0
 44
1.0
 47
0.1
 48
0.1
 73
     0
 74
     0
 78
     8
 79
     2
140
3.5
141
0.0
143
0.0393701
146
0.71
147
1.5
172
     1
176
   256
177
   256
178
     2
271
     2
272
     3
274
     4
283
     0
284
     8
340
F
371
    -1
372
    -1
1001
ACAD_DSTYLE_DIMBREAK
1070
   391
1040
3.75
1001
ACAD_DSTYLE_DIMJAG
1070
   388
1040
1.5
1001
ACAD_DSTYLE_DIMJOGGED_JOGANGLE_SYMBOL
1070
   384
1040
1.570796326794896
1001
ACAD_DSTYLE_DIM_LINETYPE
1070
   380
1005
11
1001
ACAD_DSTYLE_DIM_EXT1_LINETYPE
1070
   381
1005
11
1001
ACAD_DSTYLE_DIM_EXT2_LINETYPE
1070
   382
1005
11
  0
DIMSTYLE
105
4AD
330
A
100
AcDbSymbolTableRecord
100
AcDbDimStyleTableRecord
  2
AM_DIN$7
 70
     0
  4
"
 41
3.5
 42
1.0
 43
10.0
 44
1.0
 47
0.1
 48
0.1
 73
     0
 74
     0
 77
     1
 78
     8
 79
     2
140
3.5
141
0.0
143
0.0393701
146
0.71
147
1.5
172
     1
176
   256
177
   256
178
     2
271
     2
272
     3
274
     4
283
     0
284
     8
340
F
371
    -1
372
    -1
1001
ACAD_DSTYLE_DIMBREAK
1070
   391
1040
3.75
1001
ACAD_DSTYLE_DIMJAG
1070
   388
1040
1.5
1001
ACAD_DSTYLE_DIMJOGGED_JOGANGLE_SYMBOL
1070
   384
1040
1.570796326794896
1001
ACAD_DSTYLE_DIM_LINETYPE
1070
   380
1005
11
1001
ACAD_DSTYLE_DIM_EXT1_LINETYPE
1070
   381
1005
11
1001
ACAD_DSTYLE_DIM_EXT2_LINETYPE
1070
   382
1005
11
  0
DIMSTYLE
105
4AE
330
A
100
AcDbSymbolTableRecord
100
AcDbDimStyleTableRecord
  2
AM_DIN$SF
 70
     0
  4
"
 41
3.5
 42
1.0
 43
10.0
 44
1.0
 47
0.1
 48
0.1
 73
     0
 74
     0
 75
     1
 76
     1
 77
     1
 78
     8
 79
     2
140
3.5
141
0.0
143
0.0393701
146
0.71
147
1.5
172
     1
176
   256
177
   256
178
     2
271
     2
272
     3
274
     4
283
     0
284
     8
340
F
371
    -1
372
    -1
1001
ACAD_DSTYLE_DIMBREAK
1070
   391
1040
3.75
1001
ACAD_DSTYLE_DIMJAG
1070
   388
1040
1.5
1001
ACAD_DSTYLE_DIMJOGGED_JOGANGLE_SYMBOL
1070
   384
1040
1.570796326794896
1001
ACAD_DSTYLE_DIM_LINETYPE
1070
   380
1005
11
1001
ACAD_DSTYLE_DIM_EXT1_LINETYPE
1070
   381
1005
11
1001
ACAD_DSTYLE_DIM_EXT2_LINETYPE
1070
   382
1005
11
  0
DIMSTYLE
105
4AF
330
A
100
AcDbSymbolTableRecord
100
AcDbDimStyleTableRecord
  2
AM_DIN$SH
 70
     0
  4
"
 41
3.5
 42
1.0
 43
10.0
 44
1.0
 47
0.1
 48
0.1
 73
     0
 74
     0
 75
     1
 76
     1
 77
     1
 78
     8
 79
     2
140
3.5
141
0.0
143
0.0393701
144
2.0
146
0.71
147
1.5
172
     1
173
     1
176
   256
177
   256
178
     2
271
     2
272
     3
274
     4
283
     0
284
     8
340
F
343
31F
371
    -1
372
    -1
1001
ACAD_DSTYLE_DIMBREAK
1070
   391
1040
3.75
1001
ACAD_DSTYLE_DIMJAG
1070
   388
1040
1.5
1001
ACAD_DSTYLE_DIMJOGGED_JOGANGLE_SYMBOL
1070
   384
1040
1.570796326794896
1001
ACAD_DSTYLE_DIM_LINETYPE
1070
   380
1005
11
1001
ACAD_DSTYLE_DIM_EXT1_LINETYPE
1070
   381
1005
11
1001
ACAD_DSTYLE_DIM_EXT2_LINETYPE
1070
   382
1005
11
  0
ENDTAB
  0
TABLE
  2
BLOCK_RECORD
  5
1
330
0
100
AcDbSymbolTable
 70
    23
  0
BLOCK_RECORD
  5
17
330
1
100
AcDbSymbolTableRecord
100
AcDbBlockTableRecord
  2
*MODEL_SPACE
340
1A0
  0
BLOCK_RECORD
  5
14
330
1
100
AcDbSymbolTableRecord
100
AcDbBlockTableRecord
  2
*PAPER_SPACE
340
1A1
  0
BLOCK_RECORD
  5
1C
330
1
100
AcDbSymbolTableRecord
100
AcDbBlockTableRecord
  2
OVAL
340
0
  0
BLOCK_RECORD
  5
31F
330
1
100
AcDbSymbolTableRecord
100
AcDbBlockTableRecord
  2
GENAXEH
340
0
  0
BLOCK_RECORD
  5
337
330
1
100
AcDbSymbolTableRecord
100
AcDbBlockTableRecord
  2
RA_A3_AC
340
0
102
{BLKREFS
331
379
102
}
  0
BLOCK_RECORD
  5
37C
330
1
100
AcDbSymbolTableRecord
100
AcDbBlockTableRecord
  2
SF_WEB
340
0
102
{BLKREFS
331
3A0
102
}
  0
BLOCK_RECORD
  5
3AE
102
{ACAD_XDICTIONARY
360
3C7
102
}
330
1
100
AcDbSymbolTableRecord
100
AcDbBlockTableRecord
  2
logo_hochweb
340
0
102
{BLKREFS
331
3CC
102
}
  0
BLOCK_RECORD
  5
3CF
330
1
100
AcDbSymbolTableRecord
100
AcDbBlockTableRecord
  2
SCHNITT
340
0
102
{BLKREFS
331
61B
331
644
331
7FE
331
827
102
}
  0
BLOCK_RECORD
  5
3DA
330
1
100
AcDbSymbolTableRecord
100
AcDbBlockTableRecord
  2
*X7
340
0
102
{BLKREFS
331
3D3
102
}
  0
BLOCK_RECORD
  5
3F9
330
1
100
AcDbSymbolTableRecord
100
AcDbBlockTableRecord
  2
*X8
340
0
102
{BLKREFS
331
5A5
331
51E
331
788
331
701
102
}
  0
BLOCK_RECORD
  5
417
330
1
100
AcDbSymbolTableRecord
100
AcDbBlockTableRecord
  2
*X9
340
0
102
{BLKREFS
331
50F
331
6F2
102
}
  0
BLOCK_RECORD
  5
422
330
1
100
AcDbSymbolTableRecord
100
AcDbBlockTableRecord
  2
*X10
340
0
102
{BLKREFS
331
510
331
6F3
102
}
  0
BLOCK_RECORD
  5
426
330
1
100
AcDbSymbolTableRecord
100
AcDbBlockTableRecord
  2
*X11
340
0
102
{BLKREFS
331
501
331
6E4
102
}
  0
BLOCK_RECORD
  5
442
330
1
100
AcDbSymbolTableRecord
100
AcDbBlockTableRecord
  2
*X12
340
0
102
{BLKREFS
331
55E
331
741
102
}
  0
BLOCK_RECORD
  5
464
330
1
100
AcDbSymbolTableRecord
100
AcDbBlockTableRecord
  2
*X13
340
0
102
{BLKREFS
331
580
331
763
102
}
  0
BLOCK_RECORD
  5
46A
330
1
100
AcDbSymbolTableRecord
100
AcDbBlockTableRecord
  2
*X14
340
0
102
{BLKREFS
331
569
331
74C
102
}
  0
BLOCK_RECORD
  5
46F
330
1
100
AcDbSymbolTableRecord
100
AcDbBlockTableRecord
  2
*X15
340
0
102
{BLKREFS
331
567
331
74A
102
}
  0
BLOCK_RECORD
  5
47C
330
1
100
AcDbSymbolTableRecord
100
AcDbBlockTableRecord
  2
*D16
340
0
  0
BLOCK_RECORD
  5
488
330
1
100
AcDbSymbolTableRecord
100
AcDbBlockTableRecord
  2
*D17
340
0
  0
BLOCK_RECORD
  5
494
330
1
100
AcDbSymbolTableRecord
100
AcDbBlockTableRecord
  2
*D18
340
0
  0
BLOCK_RECORD
  5
859
330
1
100
AcDbSymbolTableRecord
100
AcDbBlockTableRecord
  2
*D20
340
0
  0
BLOCK_RECORD
  5
865
330
1
100
AcDbSymbolTableRecord
100
AcDbBlockTableRecord
  2
*D21
340
0
  0
BLOCK_RECORD
  5
871
330
1
100
AcDbSymbolTableRecord
100
AcDbBlockTableRecord
  2
*D22
340
0
  0
ENDTAB
  0
ENDSEC
  0
SECTION
  2
BLOCKS
  0
BLOCK
  5
55
330
17
100
AcDbEntity
  8
0
100
AcDbBlockBegin
  2
*MODEL_SPACE
 70
     0
 10
0.0
 20
0.0
 30
0.0
  3
*MODEL_SPACE
  1

  0
ENDBLK
  5
56
330
17
100
AcDbEntity
  8
0
100
AcDbBlockEnd
  0
BLOCK
  5
53
330
14
100
AcDbEntity
 67
     1
  8
0
100
AcDbBlockBegin
  2
*PAPER_SPACE
 70
     0
 10
0.0
 20
0.0
 30
0.0
  3
*PAPER_SPACE
  1

  0
ENDBLK
  5
54
330
14
100
AcDbEntity
 67
     1
  8
0
100
AcDbBlockEnd
  0
BLOCK
  5
59
330
1C
100
AcDbEntity
  8
0
100
AcDbBlockBegin
  2
OVAL
 70
     0
 10
0.0
 20
0.0
 30
0.0
  3
OVAL
  1

  0
LWPOLYLINE
  5
5A
330
1C
100
AcDbEntity
  8
KONTROLL-BEMM
100
AcDbPolyline
 90
        4
 70
     1
 43
0.0
 10
11.85056228432856
 20
7.583003082887785
 10
0.3505622843285607
 20
7.583003082887785
 42
1.0
 10
0.3505622843285607
 20
0.0830030828877853
 10
11.85056228432856
 20
0.0830030828877853
 42
1.0
  0
ENDBLK
  5
60
330
1C
100
AcDbEntity
  8
0
100
AcDbBlockEnd
  0
BLOCK
  5
321
330
31F
100
AcDbEntity
  8
0
100
AcDbBlockBegin
  2
GENAXEH
 70
     0
 10
0.0
 20
0.0
 30
0.0
  3
GENAXEH
  1

  0
LINE
  5
320
330
31F
100
AcDbEntity
  8
0
100
AcDbLine
 10
-1.0
 20
0.0
 30
0.0
 11
1.0
 21
0.0
 31
0.0
  0
ENDBLK
  5
322
330
31F
100
AcDbEntity
  8
0
100
AcDbBlockEnd
  0
BLOCK
  5
36E
330
337
100
AcDbEntity
  8
0
100
AcDbBlockBegin
  2
RA_A3_AC
 70
     0
 10
0.0
 20
0.0
 30
0.0
  3
RA_A3_AC
  1

  0
LINE
  5
338
330
337
100
AcDbEntity
  8
KOPF
100
AcDbLine
 10
435.0
 20
312.0
 30
0.0
 11
435.0
 21
-15.0
 31
0.0
  0
LINE
  5
339
330
337
100
AcDbEntity
  8
KOPF
100
AcDbLine
 10
420.0
 20
0.0
 30
0.0
 11
0.0
 21
0.0
 31
0.0
  0
LINE
  5
33A
330
337
100
AcDbEntity
  8
KOPF
100
AcDbLine
 10
420.0
 20
297.0
 30
0.0
 11
420.0
 21
0.0
 31
0.0
  0
LINE
  5
33B
330
337
100
AcDbEntity
  8
KOPF
100
AcDbLine
 10
0.0
 20
297.0
 30
0.0
 11
420.0
 21
297.0
 31
0.0
  0
LINE
  5
33C
330
337
100
AcDbEntity
  8
KOPF
100
AcDbLine
 10
0.0
 20
0.0
 30
0.0
 11
0.0
 21
297.0
 31
0.0
  0
LWPOLYLINE
  5
33D
330
337
100
AcDbEntity
  8
KOPF
100
AcDbPolyline
 90
        4
 70
     1
 43
0.7
 10
414.0
 20
291.0
 10
414.0
 20
6.0
 10
21.0
 20
6.0
 10
21.0
 20
291.0
  0
LINE
  5
33E
330
337
100
AcDbEntity
  8
KOPF
100
AcDbLine
 10
0.0
 20
151.5
 30
0.0
 11
9.123329060608625
 21
151.5
 31
0.0
  0
TEXT
  5
33F
330
337
100
AcDbEntity
  8
KOPF
100
AcDbText
 10
405.4839301100292
 20
1.146414063727604
 30
0.0
 40
3.5
  1
A3
 41
0.8
  7
BEMSTIL
100
AcDbText
  0
LINE
  5
340
330
337
100
AcDbEntity
  8
KOPF
100
AcDbLine
 10
91.0
 20
6.000000000000056
 30
0.0
 11
91.0
 21
3.000000000000056
 31
0.0
  0
LINE
  5
341
330
337
100
AcDbEntity
  8
KOPF
100
AcDbLine
 10
161.0
 20
6.000000000000056
 30
0.0
 11
161.0
 21
3.000000000000056
 31
0.0
  0
LINE
  5
342
330
337
100
AcDbEntity
  8
KOPF
100
AcDbLine
 10
231.0
 20
6.000000000000056
 30
0.0
 11
231.0
 21
3.000000000000056
 31
0.0
  0
LINE
  5
343
330
337
100
AcDbEntity
  8
KOPF
100
AcDbLine
 10
301.0
 20
6.000000000000056
 30
0.0
 11
301.0
 21
3.000000000000056
 31
0.0
  0
TEXT
  5
344
330
337
100
AcDbEntity
  8
KOPF
100
AcDbText
 10
54.66443874747984
 20
2.709844013406931
 30
0.0
 40
2.5
  1
1
 41
0.8
  7
TEXT25
100
AcDbText
  0
TEXT
  5
345
330
337
100
AcDbEntity
  8
KOPF
100
AcDbText
 10
124.6644387474798
 20
2.709844013406931
 30
0.0
 40
2.5
  1
2
 41
0.8
  7
TEXT25
100
AcDbText
  0
TEXT
  5
346
330
337
100
AcDbEntity
  8
KOPF
100
AcDbText
 10
194.6644387474798
 20
2.709844013406931
 30
0.0
 40
2.5
  1
3
 41
0.8
  7
TEXT25
100
AcDbText
  0
TEXT
  5
347
330
337
100
AcDbEntity
  8
KOPF
100
AcDbText
 10
264.6644387474798
 20
2.709844013406931
 30
0.0
 40
2.5
  1
4
 41
0.8
  7
TEXT25
100
AcDbText
  0
LINE
  5
348
330
337
100
AcDbEntity
  8
KOPF
100
AcDbLine
 10
21.0
 20
6.000000000000056
 30
0.0
 11
21.0
 21
3.000000000000056
 31
0.0
  0
LINE
  5
349
330
337
100
AcDbEntity
  8
KOPF
100
AcDbLine
 10
21.0
 20
6.000000000000056
 30
0.0
 11
19.0
 21
6.000000000000056
 31
0.0
  0
LINE
  5
34A
330
337
100
AcDbEntity
  8
KOPF
100
AcDbLine
 10
413.9999999999999
 20
6.000000000000056
 30
0.0
 11
415.9999999999999
 21
6.000000000000056
 31
0.0
  0
LINE
  5
34B
330
337
100
AcDbEntity
  8
KOPF
100
AcDbLine
 10
413.9999999999999
 20
6.000000000000056
 30
0.0
 11
413.9999999999999
 21
3.000000000000056
 31
0.0
  0
LINE
  5
34C
330
337
100
AcDbEntity
  8
KOPF
100
AcDbLine
 10
413.9999999999999
 20
79.0
 30
0.0
 11
416.9999999999999
 21
79.0
 31
0.0
  0
LINE
  5
34D
330
337
100
AcDbEntity
  8
KOPF
100
AcDbLine
 10
413.9999999999999
 20
152.0
 30
0.0
 11
416.9999999999999
 21
152.0
 31
0.0
  0
LINE
  5
34E
330
337
100
AcDbEntity
  8
KOPF
100
AcDbLine
 10
413.9999999999999
 20
225.0
 30
0.0
 11
416.9999999999999
 21
225.0
 31
0.0
  0
LINE
  5
34F
330
337
100
AcDbEntity
  8
KOPF
100
AcDbLine
 10
413.9999999999999
 20
6.0
 30
0.0
 11
416.9999999999999
 21
6.0
 31
0.0
  0
TEXT
  5
350
330
337
100
AcDbEntity
  8
KOPF
100
AcDbText
 10
415.6306257995392
 20
41.89443100952641
 30
0.0
 40
2.5
  1
A
 41
0.8
  7
TEXT25
100
AcDbText
  0
TEXT
  5
351
330
337
100
AcDbEntity
  8
KOPF
100
AcDbText
 10
415.8972924662059
 20
114.8944310095264
 30
0.0
 40
2.5
  1
B
 41
0.8
  7
TEXT25
100
AcDbText
  0
TEXT
  5
352
330
337
100
AcDbEntity
  8
KOPF
100
AcDbText
 10
415.7639591328726
 20
187.8944310095264
 30
0.0
 40
2.5
  1
C
 41
0.8
  7
TEXT25
100
AcDbText
  0
TEXT
  5
353
330
337
100
AcDbEntity
  8
KOPF
100
AcDbText
 10
415.8972924662059
 20
260.8944310095264
 30
0.0
 40
2.5
  1
D
 41
0.8
  7
TEXT25
100
AcDbText
  0
LINE
  5
354
330
337
100
AcDbEntity
  8
KOPF
100
AcDbLine
 10
413.9999999999999
 20
291.0
 30
0.0
 11
413.9999999999999
 21
294.0
 31
0.0
  0
LINE
  5
355
330
337
100
AcDbEntity
  8
KOPF
100
AcDbLine
 10
413.9999999999999
 20
291.0
 30
0.0
 11
415.9999999999999
 21
291.0
 31
0.0
  0
LINE
  5
356
330
337
100
AcDbEntity
  8
KOPF
100
AcDbLine
 10
21.0
 20
291.0
 30
0.0
 11
19.0
 21
291.0
 31
0.0
  0
LINE
  5
357
330
337
100
AcDbEntity
  8
KOPF
100
AcDbLine
 10
21.0
 20
291.0
 30
0.0
 11
21.0
 21
294.0
 31
0.0
  0
TEXT
  5
358
330
337
100
AcDbEntity
  8
KOPF
100
AcDbText
 10
396.6125957292463
 20
292.3535859362725
 30
0.0
 40
2.5
  1
6
 41
0.8
  7
TEXT25
100
AcDbText
  0
TEXT
  5
359
330
337
100
AcDbEntity
  8
KOPF
100
AcDbText
 10
334.6644387474798
 20
292.3535859362725
 30
0.0
 40
2.5
  1
5
 41
0.8
  7
TEXT25
100
AcDbText
  0
TEXT
  5
35A
330
337
100
AcDbEntity
  8
KOPF
100
AcDbText
 10
264.6644387474798
 20
292.3535859362725
 30
0.0
 40
2.5
  1
4
 41
0.8
  7
TEXT25
100
AcDbText
  0
TEXT
  5
35B
330
337
100
AcDbEntity
  8
KOPF
100
AcDbText
 10
194.6644387474798
 20
292.3535859362725
 30
0.0
 40
2.5
  1
3
 41
0.8
  7
TEXT25
100
AcDbText
  0
TEXT
  5
35C
330
337
100
AcDbEntity
  8
KOPF
100
AcDbText
 10
124.6644387474798
 20
292.3535859362725
 30
0.0
 40
2.5
  1
2
 41
0.8
  7
TEXT25
100
AcDbText
  0
TEXT
  5
35D
330
337
100
AcDbEntity
  8
KOPF
100
AcDbText
 10
54.66443874747984
 20
292.3535859362725
 30
0.0
 40
2.5
  1
1
 41
0.8
  7
TEXT25
100
AcDbText
  0
LINE
  5
35E
330
337
100
AcDbEntity
  8
KOPF
100
AcDbLine
 10
371.0
 20
291.0
 30
0.0
 11
371.0
 21
294.0
 31
0.0
  0
LINE
  5
35F
330
337
100
AcDbEntity
  8
KOPF
100
AcDbLine
 10
301.0
 20
291.0
 30
0.0
 11
301.0
 21
294.0
 31
0.0
  0
LINE
  5
360
330
337
100
AcDbEntity
  8
KOPF
100
AcDbLine
 10
231.0
 20
291.0
 30
0.0
 11
231.0
 21
294.0
 31
0.0
  0
LINE
  5
361
330
337
100
AcDbEntity
  8
KOPF
100
AcDbLine
 10
161.0
 20
291.0
 30
0.0
 11
161.0
 21
294.0
 31
0.0
  0
LINE
  5
362
330
337
100
AcDbEntity
  8
KOPF
100
AcDbLine
 10
91.0
 20
291.0
 30
0.0
 11
91.0
 21
294.0
 31
0.0
  0
TEXT
  5
363
330
337
100
AcDbEntity
  8
KOPF
100
AcDbText
 10
17.47344808643044
 20
260.8944310095264
 30
0.0
 40
2.5
  1
D
 41
0.8
  7
TEXT25
100
AcDbText
  0
TEXT
  5
364
330
337
100
AcDbEntity
  8
KOPF
100
AcDbText
 10
17.47344808643044
 20
187.8944310095264
 30
0.0
 40
2.5
  1
C
 41
0.8
  7
TEXT25
100
AcDbText
  0
TEXT
  5
365
330
337
100
AcDbEntity
  8
KOPF
100
AcDbText
 10
17.47344808643044
 20
114.8944310095264
 30
0.0
 40
2.5
  1
B
 41
0.8
  7
TEXT25
100
AcDbText
  0
TEXT
  5
366
330
337
100
AcDbEntity
  8
KOPF
100
AcDbText
 10
17.47344808643044
 20
41.8944310095264
 30
0.0
 40
2.5
  1
A
 41
0.8
  7
TEXT25
100
AcDbText
  0
LINE
  5
367
330
337
100
AcDbEntity
  8
KOPF
100
AcDbLine
 10
21.0
 20
6.0
 30
0.0
 11
18.0
 21
6.0
 31
0.0
  0
LINE
  5
368
330
337
100
AcDbEntity
  8
KOPF
100
AcDbLine
 10
21.0
 20
225.0
 30
0.0
 11
18.0
 21
225.0
 31
0.0
  0
LINE
  5
369
330
337
100
AcDbEntity
  8
KOPF
100
AcDbLine
 10
21.0
 20
152.0
 30
0.0
 11
18.0
 21
152.0
 31
0.0
  0
LINE
  5
36A
330
337
100
AcDbEntity
  8
KOPF
100
AcDbLine
 10
21.0
 20
79.0
 30
0.0
 11
18.0
 21
79.0
 31
0.0
  0
LINE
  5
36B
330
337
100
AcDbEntity
  8
KOPF
100
AcDbLine
 10
-15.0
 20
312.0
 30
0.0
 11
435.0
 21
312.0
 31
0.0
  0
LINE
  5
36C
330
337
100
AcDbEntity
  8
KOPF
100
AcDbLine
 10
-15.0
 20
-15.0
 30
0.0
 11
-15.0
 21
312.0
 31
0.0
  0
LINE
  5
36D
330
337
100
AcDbEntity
  8
KOPF
100
AcDbLine
 10
435.0
 20
-15.0
 30
0.0
 11
-15.0
 21
-15.0
 31
0.0
  0
ENDBLK
  5
36F
330
337
100
AcDbEntity
  8
0
100
AcDbBlockEnd
  0
BLOCK
  5
39D
330
37C
100
AcDbEntity
  8
0
100
AcDbBlockBegin
  2
SF_WEB
 70
     2
 10
0.0
 20
0.0
 30
0.0
  3
SF_WEB
  1

  0
LINE
  5
37D
330
37C
100
AcDbEntity
  8
KOPF
100
AcDbLine
 10
-193.9886905055561
 20
5.022162579921541
 30
0.0
 11
0.0
 21
5.022162579921541
 31
0.0
  0
TEXT
  5
37E
330
37C
100
AcDbEntity
  8
DUENN-18
100
AcDbText
 10
-192.0829336381698
 20
23.15023657498273
 30
0.0
 40
2.5
  1
Benennung:
 41
0.8
 51
7.0
  7
TEXT25
100
AcDbText
  0
TEXT
  5
37F
330
37C
100
AcDbEntity
  8
DUENN-18
100
AcDbText
 10
-192.1695108139387
 20
1.437878966649009
 30
0.0
 40
2.0
  1
Technische Änderungen vorbehalten
 41
0.8
 51
7.0
  7
TEXT20
100
AcDbText
  0
ATTDEF
  5
380
330
37C
100
AcDbEntity
  8
TEXT35
100
AcDbText
 10
-191.9714423512649
 20
18.8130430867416
 30
0.0
 40
3.0
  1

 41
0.8
  7
TEXT35
100
AcDbAttributeDefinition
  3
Z-Titel 1
  2
F2
 70
     0
  0
ATTDEF
  5
381
330
37C
100
AcDbEntity
  8
TEXT35
100
AcDbText
 10
-191.9714423512649
 20
14.39368482524133
 30
0.0
 40
3.0
  1

 41
0.8
  7
TEXT35
100
AcDbAttributeDefinition
  3
Z-Titel 2
  2
F3
 70
     0
  0
LINE
  5
382
330
37C
100
AcDbEntity
  8
KOPF
100
AcDbLine
 10
-109.9886905055561
 20
16.02216257992154
 30
0.0
 11
0.0
 21
16.02216257992154
 31
0.0
  0
ATTDEF
  5
383
330
37C
100
AcDbEntity
  8
TEXT25
100
AcDbText
 10
-63.06983600358859
 20
1.781467465784857
 30
0.0
 40
2.5
  1

 41
0.8
  7
TEXT25
100
AcDbAttributeDefinition
  3
Ersatz für:
  2
F11
 70
     0
  0
TEXT
  5
384
330
37C
100
AcDbEntity
  8
DUENN-18
100
AcDbText
 10
-107.9673835276751
 20
1.69820715403307
 30
0.0
 40
2.0
  1
Schutzvermerk gemäß DIN 34
 41
0.8
 51
7.0
  7
TEXT20
100
AcDbText
  0
LINE
  5
385
330
37C
100
AcDbEntity
  8
KOPF
100
AcDbLine
 10
-109.9713905511177
 20
12.02216257992154
 30
0.0
 11
-77.09123305389153
 21
12.02216257992154
 31
0.0
  0
LINE
  5
386
330
37C
100
AcDbEntity
  8
KOPF
100
AcDbLine
 10
-109.9713905511177
 20
16.02216257992154
 30
0.0
 11
-77.09123305389153
 21
16.02216257992154
 31
0.0
  0
LINE
  5
387
330
37C
100
AcDbEntity
  8
KOPF
100
AcDbLine
 10
-109.9713905511177
 20
20.02216257992154
 30
0.0
 11
-77.09123305389153
 21
20.02216257992154
 31
0.0
  0
LINE
  5
388
330
37C
100
AcDbEntity
  8
KOPF
100
AcDbLine
 10
-109.9713905511177
 20
24.02216257992154
 30
0.0
 11
-77.09123305389153
 21
24.02216257992154
 31
0.0
  0
LINE
  5
389
330
37C
100
AcDbEntity
  8
KOPF
100
AcDbLine
 10
-109.9713905511177
 20
12.02216257992154
 30
0.0
 11
-77.09123305389153
 21
12.02216257992154
 31
0.0
  0
LINE
  5
38A
330
37C
100
AcDbEntity
  8
KOPF
100
AcDbLine
 10
-101.8710354371606
 20
28.02216257992154
 30
0.0
 11
-101.8710354371606
 21
12.02216257992154
 31
0.0
  0
LINE
  5
38B
330
37C
100
AcDbEntity
  8
KOPF
100
AcDbLine
 10
-109.9713905511177
 20
28.02216257992154
 30
0.0
 11
-109.9713905511177
 21
0.0221625799215417
 31
0.0
  0
TEXT
  5
38C
330
37C
100
AcDbEntity
  8
DUENN-18
100
AcDbText
 10
-108.2635772077551
 20
13.05048799795736
 30
0.0
 40
2.0
  1
Norm
 41
0.8
 51
7.0
  7
TEXT20
100
AcDbText
  0
TEXT
  5
38D
330
37C
100
AcDbEntity
  8
DUENN-18
100
AcDbText
 10
-108.4293235138851
 20
16.96566749864223
 30
0.0
 40
2.0
  1
Upd.
 41
0.8
 51
7.0
  7
TEXT20
100
AcDbText
  0
ATTDEF
  5
38E
330
37C
100
AcDbEntity
  8
TEXT25
100
AcDbText
 10
-100.8191920456801
 20
16.53924652792928
 30
0.0
 40
2.0
  1

 41
0.8
  7
TEXT20
100
AcDbAttributeDefinition
  3
Geprüft am:
  2
F53
 70
     0
  0
TEXT
  5
38F
330
37C
100
AcDbEntity
  8
DUENN-18
100
AcDbText
 10
-108.2635772077551
 20
21.20142943840892
 30
0.0
 40
2.0
  1
Gez.
 41
0.8
 51
7.0
  7
TEXT20
100
AcDbText
  0
TEXT
  5
390
330
37C
100
AcDbEntity
  8
DUENN-18
100
AcDbText
 10
-100.147774905559
 20
25.05665087416753
 30
0.0
 40
2.0
  1
Datum
 41
0.8
 51
7.0
  7
TEXT20
100
AcDbText
  0
ATTDEF
  5
391
330
37C
100
AcDbEntity
  8
TEXT25
100
AcDbText
 10
-100.7859728332864
 20
20.81504702466451
 30
0.0
 40
2.0
  1

 41
0.8
  7
TEXT20
100
AcDbAttributeDefinition
  3
Gezeichnet am:
  2
F9
 70
     0
  0
LINE
  5
392
330
37C
100
AcDbEntity
  8
KOPF
100
AcDbLine
 10
-77.09123305389153
 20
28.02216257992154
 30
0.0
 11
-77.09123305389153
 21
0.0221625799215417
 31
0.0
  0
LINE
  5
393
330
37C
100
AcDbEntity
  8
KOPF
100
AcDbLine
 10
-89.70165699365567
 20
28.02216257992154
 30
0.0
 11
-89.70165699365566
 21
12.02216257992154
 31
0.0
  0
ATTDEF
  5
394
330
37C
100
AcDbEntity
  8
TEXT25
100
AcDbText
 10
-87.91540463705729
 20
16.76358637823622
 30
0.0
 40
2.0
  1

 41
0.8
  7
TEXT20
100
AcDbAttributeDefinition
  3
Geprüft von:
  2
F52
 70
     0
  0
ATTDEF
  5
395
330
37C
100
AcDbEntity
  8
TEXT35
100
AcDbText
 10
-192.0734817400741
 20
7.519221610381208
 30
0.0
 40
3.5
  1

 41
0.8
  7
TEXT35
100
AcDbAttributeDefinition
  3
Z-Titel 3
  2
F13
 70
     0
  0
TEXT
  5
396
330
37C
100
AcDbEntity
  8
DUENN-18
100
AcDbText
 10
-74.65810094475236
 20
1.69820715403307
 30
0.0
 40
2.0
  1
Ers. für:
 41
0.8
 51
7.0
  7
TEXT20
100
AcDbText
  0
TEXT
  5
397
330
37C
100
AcDbEntity
  8
DUENN-18
100
AcDbText
 10
-86.45722415661589
 20
25.05665087416753
 30
0.0
 40
2.0
  1
Name
 41
0.8
 51
7.0
  7
TEXT20
100
AcDbText
  0
ATTDEF
  5
398
330
37C
100
AcDbEntity
  8
TEXT25
100
AcDbText
 10
-87.90464072124001
 20
20.73211066935191
 30
0.0
 40
2.0
  1

 41
0.8
  7
TEXT20
100
AcDbAttributeDefinition
  3
Gezeichnet von
  2
F8
 70
     0
  0
ATTDEF
  5
399
330
37C
100
AcDbEntity
  8
TEXT35
100
AcDbText
 10
-72.30594474950294
 20
7.558829379641395
 30
0.0
 40
3.5
  1

 41
0.8
  7
TEXT35
100
AcDbAttributeDefinition
  3
Zeichnungsnummer
  2
F1
 70
     0
  0
TEXT
  5
39A
330
37C
100
AcDbEntity
  8
DUENN-18
100
AcDbText
 10
-72.38710846653927
 20
12.92069882222665
 30
0.0
 40
2.0
  1
Zeichnung-Nr.
 41
0.8
 51
7.0
  7
TEXT20
100
AcDbText
  0
LINE
  5
39B
330
37C
100
AcDbEntity
  8
KOPF
100
AcDbLine
 10
-193.9886905055561
 20
28.02216257992154
 30
0.0
 11
-193.9886905055561
 21
0.0221625799215417
 31
0.0
  0
LWPOLYLINE
  5
39C
330
37C
100
AcDbEntity
  8
KOPF
100
AcDbPolyline
 90
        2
 70
     0
 43
0.5
 10
-193.9886905055561
 20
28.02216257992154
 10
0.0
 20
28.02216257992154
  0
ENDBLK
  5
39E
330
37C
100
AcDbEntity
  8
0
100
AcDbBlockEnd
  0
BLOCK
  5
3C9
330
3AE
100
AcDbEntity
  8
0
100
AcDbBlockBegin
  2
logo_hochweb
 70
     0
 10
0.0
 20
0.0
 30
0.0
  3
logo_hochweb
  1

  0
TEXT
  5
3AF
330
3AE
100
AcDbEntity
  8
TEXT35
100
AcDbText
 10
-33.7885904884331
 20
25.21056262870972
 30
0.0
 40
1.524600000000017
  1
ACO  
  7
TEXT50
100
AcDbText
  0
TEXT
  5
3B0
330
3AE
100
AcDbEntity
  8
DUENN
 62
     3
100
AcDbText
 10
-33.24248055512827
 20
19.01866261332906
 30
0.0
 40
1.089000000000011
  1
FAX 04331/ 354-360
 41
0.8
  7
TEXT20
100
AcDbText
  0
TEXT
  5
3B1
330
3AE
100
AcDbEntity
  8
TEXT35
100
AcDbText
 10
-29.33607354495621
 20
25.21424775669368
 30
0.0
 40
1.524600000000017
  1
Hochbau Vertrieb GmbH
 41
0.9
  7
TEXT50
100
AcDbText
  0
TEXT
  5
3B2
330
3AE
100
AcDbEntity
  8
DUENN
 62
     3
100
AcDbText
 10
-33.44014352934114
 20
23.16567454233883
 30
0.0
 40
1.089000000000011
  1
24755 Rendsburg, Postfach 320
 41
0.8
  7
TEXT20
100
AcDbText
  0
TEXT
  5
3B3
330
3AE
100
AcDbEntity
  8
DUENN
 62
     3
100
AcDbText
 10
-33.34131138433626
 20
20.99343021626093
 30
0.0
 40
1.089000000000011
  1
Tel.  04331 / 354-410
 41
0.8
  7
TEXT20
100
AcDbText
  0
TEXT
  5
3B4
330
3AE
100
AcDbEntity
  8
DUENN
 62
     3
100
AcDbText
 10
-33.24248055512827
 20
17.24137173354322
 30
0.0
 40
1.089000000000011
  1
www.aco-hochbau.de
 41
0.8
  7
TEXT20
100
AcDbText
  0
MTEXT
  5
3B5
330
3AE
100
AcDbEntity
  8
AM_BOR
100
AcDbMText
 10
-59.2453052811757
 20
24.1035830693987
 30
0.0
 40
2.579999999999999
 41
36.8
 71
     1
 72
     5
  1
ACO Hochbau
  7
Logo
 73
     1
 44
1.0
1001
ACAD
1000
MTEXTBEGIN
1070
    73
1070
     1
1070
    44
1040
1.0
1070
    74
1070
     0
1000
MTEXTEND
  0
LWPOLYLINE
  5
3B6
330
3AE
100
AcDbEntity
  8
TEXT35
 62
     1
100
AcDbPolyline
 90
        4
 70
     1
 43
0.0
 10
-62.40319961885141
 20
23.4762221788968
 42
-3.664441495333134
 10
-62.40763490524203
 20
23.95759342360113
 10
-62.2252285160569
 20
24.06290580149908
 42
3.685001202565794
 10
-62.22081466881444
 20
23.3709221788968
  0
LINE
  5
3B7
330
3AE
100
AcDbEntity
  8
TEXT35
 62
     1
100
AcDbLine
 10
-63.65188118276229
 20
26.64287778901508
 30
0.0
 11
-63.65188118276229
 21
22.67243709271387
 31
0.0
  0
LINE
  5
3B8
330
3AE
100
AcDbEntity
  8
TEXT35
 62
     1
100
AcDbLine
 10
-63.65188118276229
 20
22.67243709271387
 30
0.0
 11
-61.97525033010713
 21
22.67243709271387
 31
0.0
  0
LINE
  5
3B9
330
3AE
100
AcDbEntity
  8
TEXT35
 62
     1
100
AcDbLine
 10
-61.97525033010713
 20
22.67243709271387
 30
0.0
 11
-61.97525033010713
 21
26.64287778901508
 31
0.0
  0
LINE
  5
3BA
330
3AE
100
AcDbEntity
  8
TEXT35
 62
     1
100
AcDbLine
 10
-61.97525033010713
 20
26.64287778901508
 30
0.0
 11
-63.65188118276229
 21
26.64287778901508
 31
0.0
  0
LINE
  5
3BB
330
3AE
100
AcDbEntity
  8
TEXT35
 62
     1
100
AcDbLine
 10
-65.59123305389153
 20
26.64287778901508
 30
0.0
 11
-65.59123305389153
 21
22.67243709271387
 31
0.0
  0
LINE
  5
3BC
330
3AE
100
AcDbEntity
  8
TEXT35
 62
     1
100
AcDbLine
 10
-65.59123305389153
 20
22.67243709271387
 30
0.0
 11
-63.91460220123637
 21
22.67243709271387
 31
0.0
  0
LINE
  5
3BD
330
3AE
100
AcDbEntity
  8
TEXT35
 62
     1
100
AcDbLine
 10
-63.91460220123637
 20
22.67243709271387
 30
0.0
 11
-63.91460220123637
 21
26.64287778901508
 31
0.0
  0
LINE
  5
3BE
330
3AE
100
AcDbEntity
  8
TEXT35
 62
     1
100
AcDbLine
 10
-63.91460220123637
 20
26.64287778901508
 30
0.0
 11
-65.59123305389153
 21
26.64287778901508
 31
0.0
  0
LWPOLYLINE
  5
3BF
330
3AE
100
AcDbEntity
  8
TEXT35
 62
     1
100
AcDbPolyline
 90
        7
 70
     1
 43
0.0
 10
-65.22674891363384
 20
23.01948515399511
 42
-0.0323236910300514
 10
-65.21349517569657
 20
23.20943071529944
 10
-64.29234007943129
 20
23.20943071529944
 42
-0.0323236910300515
 10
-64.27908634149405
 20
23.01948515399511
 10
-64.06848400222843
 20
23.01948515399511
 42
0.2369604974400691
 10
-64.75291762756397
 20
24.36773071529937
 42
0.2369604974400691
 10
-65.43735125289946
 20
23.01948515399511
  0
LWPOLYLINE
  5
3C0
330
3AE
100
AcDbEntity
  8
TEXT35
 62
     1
100
AcDbPolyline
 90
        3
 70
     1
 43
0.0
 10
-64.75291762756391
 20
24.09490775656955
 42
-0.1369919174131033
 10
-64.33664376098296
 20
23.42003071529944
 10
-65.16919149414492
 20
23.42003071529944
 42
-0.136991917413112
  0
LINE
  5
3C1
330
3AE
100
AcDbEntity
  8
TEXT35
 62
     1
100
AcDbLine
 10
-61.71252931163305
 20
22.67243709271387
 30
0.0
 11
-61.71252931163305
 21
26.64287778901508
 31
0.0
  0
LINE
  5
3C2
330
3AE
100
AcDbEntity
  8
TEXT35
 62
     1
100
AcDbLine
 10
-60.03589845897789
 20
26.64287778901508
 30
0.0
 11
-60.03589845897789
 21
22.67243709271387
 31
0.0
  0
LINE
  5
3C3
330
3AE
100
AcDbEntity
  8
TEXT35
 62
     1
100
AcDbLine
 10
-60.03589845897789
 20
22.67243709271387
 30
0.0
 11
-61.71252931163305
 21
22.67243709271387
 31
0.0
  0
CIRCLE
  5
3C4
330
3AE
100
AcDbEntity
  8
TEXT35
 62
     1
100
AcDbCircle
 10
-60.87421388530549
 20
23.71314717889681
 30
0.0
 40
0.6844499999999997
  0
CIRCLE
  5
3C5
330
3AE
100
AcDbEntity
  8
TEXT35
 62
     1
100
AcDbCircle
 10
-60.87421388530549
 20
23.71314717889681
 30
0.0
 40
0.4738499999999997
  0
LINE
  5
3C6
330
3AE
100
AcDbEntity
  8
TEXT35
 62
     1
100
AcDbLine
 10
-61.71252931163305
 20
26.64287778901508
 30
0.0
 11
-60.03589845897789
 21
26.64287778901508
 31
0.0
  0
ENDBLK
  5
3CA
330
3AE
100
AcDbEntity
  8
0
100
AcDbBlockEnd
  0
BLOCK
  5
3D0
330
3CF
100
AcDbEntity
  8
0
100
AcDbBlockBegin
  2
SCHNITT
 70
     2
 10
0.0
 20
0.0
 30
0.0
  3
SCHNITT
  1

  0
ATTDEF
  5
3D1
330
3CF
100
AcDbEntity
  8
TEXT50
100
AcDbText
 10
2.141442237883879
 20
-2.501084761132204
 30
0.0
 40
5.0
  1
A
 41
0.8
  7
TEXT50
100
AcDbAttributeDefinition
  3
Schnittbezeichnung eingeben :
  2
SCHNITTB
 70
     0
  0
LINE
  5
3D2
330
3CF
100
AcDbEntity
  8
TEXT50
100
AcDbLine
 10
0.0000000000000071
 20
-5.090279711476966
 30
0.0
 11
0.0000000000000071
 21
5.090279711477023
 31
0.0
  0
INSERT
  5
3D3
330
3CF
100
AcDbEntity
  8
SCHRAFF
100
AcDbBlockReference
  2
*X7
 10
161.269152865483
 20
-711.8438534538252
 30
0.0
 50
90.0
  0
LINE
  5
3D4
330
3CF
100
AcDbEntity
  8
SICHTBAR
100
AcDbLine
 10
-7.727406610312748
 20
0.0000000000000568
 30
0.0
 11
-17.72740661031274
 21
0.0000000000000568
 31
0.0
  0
LINE
  5
3D5
330
3CF
100
AcDbEntity
  8
SICHTBAR
100
AcDbLine
 10
-7.727406610312748
 20
-2.070552360820158
 30
0.0
 11
-7.727406610312748
 21
2.070552360820272
 31
0.0
  0
LINE
  5
3D6
330
3CF
100
AcDbEntity
  8
SICHTBAR
100
AcDbLine
 10
-0.0000000000002203
 20
0.0000000000000568
 30
0.0
 11
-7.727406610312748
 21
-2.070552360820158
 31
0.0
  0
LINE
  5
3D7
330
3CF
100
AcDbEntity
  8
SICHTBAR
100
AcDbLine
 10
-0.0000000000002203
 20
0.0000000000000568
 30
0.0
 11
-7.727406610312748
 21
2.070552360820272
 31
0.0
  0
ATTDEF
  5
3D8
330
3CF
100
AcDbEntity
  8
PN
100
AcDbText
 10
0.0
 20
0.0
 30
0.0
 40
5.0
  1
PN000000
 41
0.8
  7
TEXT50
100
AcDbAttributeDefinition
  3

  2
PN
 70
     1
  0
ENDBLK
  5
3D9
330
3CF
100
AcDbEntity
  8
0
100
AcDbBlockEnd
  0
BLOCK
  5
3DB
330
3DA
100
AcDbEntity
  8
0
100
AcDbBlockBegin
  2
*X7
 70
     1
 10
0.0
 20
0.0
 30
0.0
  3
*X7
  1

  0
LINE
  5
3DC
330
3DA
100
AcDbEntity
  8
0
 62
     0
100
AcDbLine
 10
711.0025356208101
 20
164.4089937636089
 30
0.0
 11
713.3010586859208
 21
166.7075168287198
 31
0.0
  0
LINE
  5
3DD
330
3DA
100
AcDbEntity
  8
0
 62
     0
100
AcDbLine
 10
710.9278209981295
 20
164.6878325315215
 30
0.0
 11
713.4304682084722
 21
167.1904797418643
 31
0.0
  0
LINE
  5
3DE
330
3DA
100
AcDbEntity
  8
0
 62
     0
100
AcDbLine
 10
710.8531063754488
 20
164.9666712994341
 30
0.0
 11
713.5598777310236
 21
167.6734426550089
 31
0.0
  0
LINE
  5
3DF
330
3DA
100
AcDbEntity
  8
0
 62
     0
100
AcDbLine
 10
710.778391752768
 20
165.2455100673467
 30
0.0
 11
713.6892872535748
 21
168.1564055681534
 31
0.0
  0
LINE
  5
3E0
330
3DA
100
AcDbEntity
  8
0
 62
     0
100
AcDbLine
 10
710.7036771300873
 20
165.5243488352593
 30
0.0
 11
713.8186967761261
 21
168.639368481298
 31
0.0
  0
LINE
  5
3E1
330
3DA
100
AcDbEntity
  8
0
 62
     0
100
AcDbLine
 10
710.6289625074067
 20
165.8031876031719
 30
0.0
 11
713.8223343800306
 21
168.9965594757957
 31
0.0
  0
LINE
  5
3E2
330
3DA
100
AcDbEntity
  8
0
 62
     0
100
AcDbLine
 10
710.5542478847261
 20
166.0820263710845
 30
0.0
 11
713.4687809894374
 21
168.9965594757957
 31
0.0
  0
LINE
  5
3E3
330
3DA
100
AcDbEntity
  8
0
 62
     0
100
AcDbLine
 10
710.4795332620454
 20
166.3608651389971
 30
0.0
 11
713.1152275988441
 21
168.9965594757957
 31
0.0
  0
LINE
  5
3E4
330
3DA
100
AcDbEntity
  8
0
 62
     0
100
AcDbLine
 10
710.4048186393648
 20
166.6397039069097
 30
0.0
 11
712.7616742082509
 21
168.9965594757957
 31
0.0
  0
LINE
  5
3E5
330
3DA
100
AcDbEntity
  8
0
 62
     0
100
AcDbLine
 10
710.3301040166841
 20
166.9185426748223
 30
0.0
 11
712.4081208176576
 21
168.9965594757957
 31
0.0
  0
LINE
  5
3E6
330
3DA
100
AcDbEntity
  8
0
 62
     0
100
AcDbLine
 10
710.2553893940033
 20
167.1973814427349
 30
0.0
 11
712.0545674270644
 21
168.9965594757957
 31
0.0
  0
LINE
  5
3E7
330
3DA
100
AcDbEntity
  8
0
 62
     0
100
AcDbLine
 10
710.1806747713227
 20
167.4762202106475
 30
0.0
 11
711.701014036471
 21
168.9965594757957
 31
0.0
  0
LINE
  5
3E8
330
3DA
100
AcDbEntity
  8
0
 62
     0
100
AcDbLine
 10
710.105960148642
 20
167.7550589785601
 30
0.0
 11
711.3474606458777
 21
168.9965594757957
 31
0.0
  0
LINE
  5
3E9
330
3DA
100
AcDbEntity
  8
0
 62
     0
100
AcDbLine
 10
710.0312455259613
 20
168.0338977464727
 30
0.0
 11
710.9939072552845
 21
168.9965594757957
 31
0.0
  0
LINE
  5
3EA
330
3DA
100
AcDbEntity
  8
0
 62
     0
100
AcDbLine
 10
709.9565309032807
 20
168.3127365143853
 30
0.0
 11
710.6403538646912
 21
168.9965594757957
 31
0.0
  0
LINE
  5
3EB
330
3DA
100
AcDbEntity
  8
0
 62
     0
100
AcDbLine
 10
709.8818162806001
 20
168.5915752822979
 30
0.0
 11
710.2868004740978
 21
168.9965594757957
 31
0.0
  0
LINE
  5
3EC
330
3DA
100
AcDbEntity
  8
0
 62
     0
100
AcDbLine
 10
709.8071016579194
 20
168.8704140502105
 30
0.0
 11
709.9332470835047
 21
168.9965594757957
 31
0.0
  0
LINE
  5
3ED
330
3DA
100
AcDbEntity
  8
0
 62
     0
100
AcDbLine
 10
711.0772502434907
 20
164.1301549956963
 30
0.0
 11
713.1716491633697
 21
166.2245539155752
 31
0.0
  0
LINE
  5
3EE
330
3DA
100
AcDbEntity
  8
0
 62
     0
100
AcDbLine
 10
711.1519648661714
 20
163.8513162277837
 30
0.0
 11
713.0422396408184
 21
165.7415910024307
 31
0.0
  0
LINE
  5
3EF
330
3DA
100
AcDbEntity
  8
0
 62
     0
100
AcDbLine
 10
711.2266794888521
 20
163.5724774598711
 30
0.0
 11
712.9128301182671
 21
165.2586280892861
 31
0.0
  0
LINE
  5
3F0
330
3DA
100
AcDbEntity
  8
0
 62
     0
100
AcDbLine
 10
711.3013941115327
 20
163.2936386919585
 30
0.0
 11
712.7834205957159
 21
164.7756651761417
 31
0.0
  0
LINE
  5
3F1
330
3DA
100
AcDbEntity
  8
0
 62
     0
100
AcDbLine
 10
711.3761087342135
 20
163.0147999240459
 30
0.0
 11
712.6540110731646
 21
164.2927022629971
 31
0.0
  0
LINE
  5
3F2
330
3DA
100
AcDbEntity
  8
0
 62
     0
100
AcDbLine
 10
711.4508233568941
 20
162.7359611561333
 30
0.0
 11
712.5246015506133
 21
163.8097393498526
 31
0.0
  0
LINE
  5
3F3
330
3DA
100
AcDbEntity
  8
0
 62
     0
100
AcDbLine
 10
711.5255379795748
 20
162.4571223882207
 30
0.0
 11
712.3951920280622
 21
163.326776436708
 31
0.0
  0
LINE
  5
3F4
330
3DA
100
AcDbEntity
  8
0
 62
     0
100
AcDbLine
 10
711.6002526022555
 20
162.1782836203081
 30
0.0
 11
712.2657825055108
 21
162.8438135235635
 31
0.0
  0
LINE
  5
3F5
330
3DA
100
AcDbEntity
  8
0
 62
     0
100
AcDbLine
 10
711.6749672249361
 20
161.8994448523955
 30
0.0
 11
712.1363729829596
 21
162.3608506104189
 31
0.0
  0
LINE
  5
3F6
330
3DA
100
AcDbEntity
  8
0
 62
     0
100
AcDbLine
 10
711.7496818476167
 20
161.6206060844829
 30
0.0
 11
712.0069634604083
 21
161.8778876972744
 31
0.0
  0
LINE
  5
3F7
330
3DA
100
AcDbEntity
  8
0
 62
     0
100
AcDbLine
 10
711.8243964702976
 20
161.3417673165703
 30
0.0
 11
711.8775539378571
 21
161.3949247841298
 31
0.0
  0
ENDBLK
  5
3F8
330
3DA
100
AcDbEntity
  8
0
100
AcDbBlockEnd
  0
BLOCK
  5
3FA
330
3F9
100
AcDbEntity
  8
0
100
AcDbBlockBegin
  2
*X8
 70
     1
 10
0.0
 20
0.0
 30
0.0
  3
*X8
  1

  0
LINE
  5
3FB
330
3F9
100
AcDbEntity
  8
0
 62
     0
100
AcDbLine
 10
-163.9689588183904
 20
328.1773608874467
 30
0.0
 11
-162.7402196649543
 21
329.4061000408827
 31
0.0
  0
LINE
  5
3FC
330
3F9
100
AcDbEntity
  8
0
 62
     0
100
AcDbLine
 10
-163.9902196649543
 20
329.5703136032558
 30
0.0
 11
-162.7402196649543
 21
330.8203136032558
 31
0.0
  0
LINE
  5
3FD
330
3F9
100
AcDbEntity
  8
0
 62
     0
100
AcDbLine
 10
-163.9902196649543
 20
330.9845271656289
 30
0.0
 11
-162.7402196649543
 21
332.2345271656289
 31
0.0
  0
LINE
  5
3FE
330
3F9
100
AcDbEntity
  8
0
 62
     0
100
AcDbLine
 10
-163.9902196649543
 20
332.398740728002
 30
0.0
 11
-162.7402196649543
 21
333.6487407280019
 31
0.0
  0
LINE
  5
3FF
330
3F9
100
AcDbEntity
  8
0
 62
     0
100
AcDbLine
 10
-163.9902196649543
 20
333.8129542903751
 30
0.0
 11
-162.7402196649543
 21
335.062954290375
 31
0.0
  0
LINE
  5
400
330
3F9
100
AcDbEntity
  8
0
 62
     0
100
AcDbLine
 10
-161.6741575173821
 20
336.1290164379473
 30
0.0
 11
-161.4902196649543
 21
336.3129542903751
 31
0.0
  0
LINE
  5
401
330
3F9
100
AcDbEntity
  8
0
 62
     0
100
AcDbLine
 10
-163.9902196649543
 20
335.2271678527482
 30
0.0
 11
-161.4902196649543
 21
337.7271678527482
 31
0.0
  0
LINE
  5
402
330
3F9
100
AcDbEntity
  8
0
 62
     0
100
AcDbLine
 10
-163.9902196649543
 20
336.6413814151213
 30
0.0
 11
-161.4902196649543
 21
339.1413814151213
 31
0.0
  0
LINE
  5
403
330
3F9
100
AcDbEntity
  8
0
 62
     0
100
AcDbLine
 10
-163.9902196649543
 20
338.0555949774944
 30
0.0
 11
-161.4902196649543
 21
340.5555949774944
 31
0.0
  0
LINE
  5
404
330
3F9
100
AcDbEntity
  8
0
 62
     0
100
AcDbLine
 10
-163.9902196649543
 20
339.4698085398675
 30
0.0
 11
-161.4902196649543
 21
341.9698085398675
 31
0.0
  0
LINE
  5
405
330
3F9
100
AcDbEntity
  8
0
 62
     0
100
AcDbLine
 10
-163.9902196649543
 20
340.8840221022406
 30
0.0
 11
-161.4902196649543
 21
343.3840221022406
 31
0.0
  0
LINE
  5
406
330
3F9
100
AcDbEntity
  8
0
 62
     0
100
AcDbLine
 10
-163.9902196649543
 20
342.2982356646137
 30
0.0
 11
-161.4902196649543
 21
344.7982356646137
 31
0.0
  0
LINE
  5
407
330
3F9
100
AcDbEntity
  8
0
 62
     0
100
AcDbLine
 10
-163.9902196649543
 20
343.7124492269867
 30
0.0
 11
-161.4902196649543
 21
346.2124492269867
 31
0.0
  0
LINE
  5
408
330
3F9
100
AcDbEntity
  8
0
 62
     0
100
AcDbLine
 10
-163.9902196649543
 20
345.1266627893598
 30
0.0
 11
-161.6415995074903
 21
347.4752829468238
 31
0.0
  0
LINE
  5
409
330
3F9
100
AcDbEntity
  8
0
 62
     0
100
AcDbLine
 10
-163.9902196649543
 20
346.5408763517329
 30
0.0
 11
-162.4389324308083
 21
348.0921635858789
 31
0.0
  0
LINE
  5
40A
330
3F9
100
AcDbEntity
  8
0
 62
     0
100
AcDbLine
 10
-163.4531799308267
 20
327.2789262126372
 30
0.0
 11
-162.4618575448262
 21
328.2702485986377
 31
0.0
  0
LINE
  5
40B
330
3F9
100
AcDbEntity
  8
0
 62
     0
100
AcDbLine
 10
-162.3888761431436
 20
326.9290164379473
 30
0.0
 11
-161.1888761431435
 21
328.1290164379473
 31
0.0
  0
LINE
  5
40C
330
3F9
100
AcDbEntity
  8
0
 62
     0
100
AcDbLine
 10
-160.9746625807705
 20
326.9290164379473
 30
0.0
 11
-159.7746625807704
 21
328.1290164379473
 31
0.0
  0
LINE
  5
40D
330
3F9
100
AcDbEntity
  8
0
 62
     0
100
AcDbLine
 10
-159.5604490183974
 20
326.9290164379473
 30
0.0
 11
-158.3604490183973
 21
328.1290164379473
 31
0.0
  0
LINE
  5
40E
330
3F9
100
AcDbEntity
  8
0
 62
     0
100
AcDbLine
 10
-158.1462354560243
 20
326.9290164379473
 30
0.0
 11
-156.9462354560242
 21
328.1290164379473
 31
0.0
  0
LINE
  5
40F
330
3F9
100
AcDbEntity
  8
0
 62
     0
100
AcDbLine
 10
-156.7320218936512
 20
326.9290164379473
 30
0.0
 11
-155.5320218936511
 21
328.1290164379473
 31
0.0
  0
LINE
  5
410
330
3F9
100
AcDbEntity
  8
0
 62
     0
100
AcDbLine
 10
-155.3178083312781
 20
326.9290164379473
 30
0.0
 11
-154.1178083312781
 21
328.1290164379473
 31
0.0
  0
LINE
  5
411
330
3F9
100
AcDbEntity
  8
0
 62
     0
100
AcDbLine
 10
-153.903594768905
 20
326.9290164379473
 30
0.0
 11
-152.7035947689049
 21
328.1290164379473
 31
0.0
  0
LINE
  5
412
330
3F9
100
AcDbEntity
  8
0
 62
     0
100
AcDbLine
 10
-152.4893812065319
 20
326.9290164379473
 30
0.0
 11
-151.2893812065318
 21
328.1290164379473
 31
0.0
  0
LINE
  5
413
330
3F9
100
AcDbEntity
  8
0
 62
     0
100
AcDbLine
 10
-151.0751676441588
 20
326.9290164379473
 30
0.0
 11
-149.8751676441588
 21
328.1290164379473
 31
0.0
  0
LINE
  5
414
330
3F9
100
AcDbEntity
  8
0
 62
     0
100
AcDbLine
 10
-149.6609540817857
 20
326.9290164379473
 30
0.0
 11
-148.4609540817857
 21
328.1290164379473
 31
0.0
  0
LINE
  5
415
330
3F9
100
AcDbEntity
  8
0
 62
     0
100
AcDbLine
 10
-148.2467405194126
 20
326.9290164379473
 30
0.0
 11
-147.4902196649543
 21
327.6855372924056
 31
0.0
  0
ENDBLK
  5
416
330
3F9
100
AcDbEntity
  8
0
100
AcDbBlockEnd
  0
BLOCK
  5
418
330
417
100
AcDbEntity
  8
0
100
AcDbBlockBegin
  2
*X9
 70
     1
 10
0.0
 20
0.0
 30
0.0
  3
*X9
  1

  0
LINE
  5
419
330
417
100
AcDbEntity
  8
0
 62
     0
100
AcDbLine
 10
-211.6639116619239
 20
65.52194656320274
 30
0.0
 11
-206.0799036775081
 21
71.10595454761853
 31
0.0
  0
LINE
  5
41A
330
417
100
AcDbEntity
  8
0
 62
     0
100
AcDbLine
 10
-213.2382351863732
 20
66.77605016349963
 30
0.0
 11
-208.7384208033345
 21
71.27586454653826
 31
0.0
  0
LINE
  5
41B
330
417
100
AcDbEntity
  8
0
 62
     0
100
AcDbLine
 10
-216.0666623111194
 20
66.77605016349963
 30
0.0
 11
-211.396937929161
 21
71.44577454545798
 31
0.0
  0
LINE
  5
41C
330
417
100
AcDbEntity
  8
0
 62
     0
100
AcDbLine
 10
-218.8950894358655
 20
66.77605016349963
 30
0.0
 11
-214.0554550549875
 21
71.6156845443777
 31
0.0
  0
LINE
  5
41D
330
417
100
AcDbEntity
  8
0
 62
     0
100
AcDbLine
 10
-221.7235165606117
 20
66.77605016349963
 30
0.0
 11
-216.7139721808139
 21
71.78559454329742
 31
0.0
  0
LINE
  5
41E
330
417
100
AcDbEntity
  8
0
 62
     0
100
AcDbLine
 10
-209.1813809368807
 20
65.17605016349972
 30
0.0
 11
-203.4213865516816
 21
70.9360445486988
 31
0.0
  0
LINE
  5
41F
330
417
100
AcDbEntity
  8
0
 62
     0
100
AcDbLine
 10
-206.3529538121345
 20
65.17605016349972
 30
0.0
 11
-200.7529538121342
 21
70.77605016350005
 31
0.0
  0
LINE
  5
420
330
417
100
AcDbEntity
  8
0
 62
     0
100
AcDbLine
 10
-203.5245266873883
 20
65.17605016349972
 30
0.0
 11
-200.9980152622209
 21
67.70256158866715
 31
0.0
  0
ENDBLK
  5
421
330
417
100
AcDbEntity
  8
0
100
AcDbBlockEnd
  0
BLOCK
  5
423
330
422
100
AcDbEntity
  8
0
100
AcDbBlockBegin
  2
*X10
 70
     1
 10
0.0
 20
0.0
 30
0.0
  3
*X10
  1

  0
LINE
  5
424
330
422
100
AcDbEntity
  8
0
 62
     0
100
AcDbLine
 10
-224.5180152622209
 20
66.80997858663669
 30
0.0
 11
-218.8202353982964
 21
72.50775845056111
 31
0.0
  0
ENDBLK
  5
425
330
422
100
AcDbEntity
  8
0
100
AcDbBlockEnd
  0
BLOCK
  5
427
330
426
100
AcDbEntity
  8
0
100
AcDbBlockBegin
  2
*X11
 70
     1
 10
0.0
 20
0.0
 30
0.0
  3
*X11
  1

  0
LINE
  5
428
330
426
100
AcDbEntity
  8
0
 62
     0
100
AcDbLine
 10
-224.5180152622209
 20
120.5500939568142
 30
0.0
 11
-219.4700227916043
 21
125.5980864274308
 31
0.0
  0
LINE
  5
429
330
426
100
AcDbEntity
  8
0
 62
     0
100
AcDbLine
 10
-224.5180152622209
 20
123.3785210815604
 30
0.0
 11
-219.4834913232829
 21
128.4130450204984
 31
0.0
  0
LINE
  5
42A
330
426
100
AcDbEntity
  8
0
 62
     0
100
AcDbLine
 10
-224.5180152622209
 20
126.2069482063066
 30
0.0
 11
-219.4969598549614
 21
131.2280036135661
 31
0.0
  0
LINE
  5
42B
330
426
100
AcDbEntity
  8
0
 62
     0
100
AcDbLine
 10
-224.5180152622209
 20
129.0353753310528
 30
0.0
 11
-219.51042838664
 21
134.0429622066337
 31
0.0
  0
LINE
  5
42C
330
426
100
AcDbEntity
  8
0
 62
     0
100
AcDbLine
 10
-224.5180152622209
 20
131.863802455799
 30
0.0
 11
-219.5238969183185
 21
136.8579207997013
 31
0.0
  0
LINE
  5
42D
330
426
100
AcDbEntity
  8
0
 62
     0
100
AcDbLine
 10
-224.5180152622209
 20
134.6922295805452
 30
0.0
 11
-219.5373654499971
 21
139.672879392769
 31
0.0
  0
LINE
  5
42E
330
426
100
AcDbEntity
  8
0
 62
     0
100
AcDbLine
 10
-224.5180152622209
 20
137.5206567052914
 30
0.0
 11
-219.5508339816756
 21
142.4878379858366
 31
0.0
  0
LINE
  5
42F
330
426
100
AcDbEntity
  8
0
 62
     0
100
AcDbLine
 10
-224.5180152622209
 20
140.3490838300376
 30
0.0
 11
-219.5643025133541
 21
145.3027965789043
 31
0.0
  0
LINE
  5
430
330
426
100
AcDbEntity
  8
0
 62
     0
100
AcDbLine
 10
-224.5180152622209
 20
143.1775109547838
 30
0.0
 11
-219.5777710450327
 21
148.1177551719719
 31
0.0
  0
LINE
  5
431
330
426
100
AcDbEntity
  8
0
 62
     0
100
AcDbLine
 10
-224.5180152622209
 20
146.00593807953
 30
0.0
 11
-219.5912395767113
 21
150.9327137650396
 31
0.0
  0
LINE
  5
432
330
426
100
AcDbEntity
  8
0
 62
     0
100
AcDbLine
 10
-224.5180152622209
 20
148.8343652042761
 30
0.0
 11
-219.6047081083898
 21
153.7476723581072
 31
0.0
  0
LINE
  5
433
330
426
100
AcDbEntity
  8
0
 62
     0
100
AcDbLine
 10
-224.5180152622209
 20
151.6627923290223
 30
0.0
 11
-219.6181766400683
 21
156.5626309511749
 31
0.0
  0
LINE
  5
434
330
426
100
AcDbEntity
  8
0
 62
     0
100
AcDbLine
 10
-224.5180152622209
 20
154.4912194537685
 30
0.0
 11
-219.6316451717469
 21
159.3775895442425
 31
0.0
  0
LINE
  5
435
330
426
100
AcDbEntity
  8
0
 62
     0
100
AcDbLine
 10
-224.5180152622209
 20
157.3196465785147
 30
0.0
 11
-219.6451137034254
 21
162.1925481373102
 31
0.0
  0
LINE
  5
436
330
426
100
AcDbEntity
  8
0
 62
     0
100
AcDbLine
 10
-224.5180152622209
 20
117.7216668320681
 30
0.0
 11
-219.4565542599258
 21
122.7831278343631
 31
0.0
  0
LINE
  5
437
330
426
100
AcDbEntity
  8
0
 62
     0
100
AcDbLine
 10
-224.5180152622209
 20
114.8932397073219
 30
0.0
 11
-219.4430857282473
 21
119.9681692412955
 31
0.0
  0
LINE
  5
438
330
426
100
AcDbEntity
  8
0
 62
     0
100
AcDbLine
 10
-224.5180152622209
 20
112.0648125825757
 30
0.0
 11
-219.4296171965687
 21
117.1532106482279
 31
0.0
  0
LINE
  5
439
330
426
100
AcDbEntity
  8
0
 62
     0
100
AcDbLine
 10
-224.5180152622209
 20
109.2363854578295
 30
0.0
 11
-219.4161486648901
 21
114.3382520551602
 31
0.0
  0
LINE
  5
43A
330
426
100
AcDbEntity
  8
0
 62
     0
100
AcDbLine
 10
-224.5180152622209
 20
106.4079583330833
 30
0.0
 11
-219.4026801332116
 21
111.5232934620926
 31
0.0
  0
LINE
  5
43B
330
426
100
AcDbEntity
  8
0
 62
     0
100
AcDbLine
 10
-224.5180152622209
 20
103.5795312083371
 30
0.0
 11
-219.3892116015331
 21
108.7083348690249
 31
0.0
  0
LINE
  5
43C
330
426
100
AcDbEntity
  8
0
 62
     0
100
AcDbLine
 10
-224.5180152622209
 20
100.751104083591
 30
0.0
 11
-219.3757430698545
 21
105.8933762759573
 31
0.0
  0
LINE
  5
43D
330
426
100
AcDbEntity
  8
0
 62
     0
100
AcDbLine
 10
-224.5180152622209
 20
97.92267695884479
 30
0.0
 11
-219.362274538176
 21
103.0784176828896
 31
0.0
  0
LINE
  5
43E
330
426
100
AcDbEntity
  8
0
 62
     0
100
AcDbLine
 10
-224.5180152622209
 20
95.09424983409859
 30
0.0
 11
-219.3488060064974
 21
100.263459089822
 31
0.0
  0
LINE
  5
43F
330
426
100
AcDbEntity
  8
0
 62
     0
100
AcDbLine
 10
-224.5180152622209
 20
92.2658227093524
 30
0.0
 11
-219.3353374748189
 21
97.44850049675438
 31
0.0
  0
LINE
  5
440
330
426
100
AcDbEntity
  8
0
 62
     0
100
AcDbLine
 10
-224.5180152622209
 20
89.4373955846062
 30
0.0
 11
-219.3218689431403
 21
94.63354190368674
 31
0.0
  0
ENDBLK
  5
441
330
426
100
AcDbEntity
  8
0
100
AcDbBlockEnd
  0
BLOCK
  5
443
330
442
100
AcDbEntity
  8
0
100
AcDbBlockBegin
  2
*X12
 70
     1
 10
0.0
 20
0.0
 30
0.0
  3
*X12
  1

  0
LINE
  5
444
330
442
100
AcDbEntity
  8
0
 62
     0
100
AcDbLine
 10
-224.5180152622209
 20
230.8587518219157
 30
0.0
 11
-219.4965040536627
 21
235.8802630304738
 31
0.0
  0
LINE
  5
445
330
442
100
AcDbEntity
  8
0
 62
     0
100
AcDbLine
 10
-224.5180152622209
 20
233.6871789466619
 30
0.0
 11
-219.4832414920345
 21
238.7219527168482
 31
0.0
  0
LINE
  5
446
330
442
100
AcDbEntity
  8
0
 62
     0
100
AcDbLine
 10
-224.5180152622209
 20
236.5156060714081
 30
0.0
 11
-219.4699789304064
 21
241.5636424032225
 31
0.0
  0
LINE
  5
447
330
442
100
AcDbEntity
  8
0
 62
     0
100
AcDbLine
 10
-224.5180152622209
 20
239.3440331961543
 30
0.0
 11
-219.4567163687782
 21
244.4053320895969
 31
0.0
  0
LINE
  5
448
330
442
100
AcDbEntity
  8
0
 62
     0
100
AcDbLine
 10
-224.5180152622209
 20
242.1724603209005
 30
0.0
 11
-219.44345380715
 21
247.2470217759713
 31
0.0
  0
LINE
  5
449
330
442
100
AcDbEntity
  8
0
 62
     0
100
AcDbLine
 10
-224.5180152622209
 20
245.0008874456466
 30
0.0
 11
-219.4301912455219
 21
250.0887114623456
 31
0.0
  0
LINE
  5
44A
330
442
100
AcDbEntity
  8
0
 62
     0
100
AcDbLine
 10
-224.5180152622209
 20
247.8293145703928
 30
0.0
 11
-219.4169286838937
 21
252.93040114872
 31
0.0
  0
LINE
  5
44B
330
442
100
AcDbEntity
  8
0
 62
     0
100
AcDbLine
 10
-224.5180152622209
 20
250.657741695139
 30
0.0
 11
-219.4036661222655
 21
255.7720908350944
 31
0.0
  0
LINE
  5
44C
330
442
100
AcDbEntity
  8
0
 62
     0
100
AcDbLine
 10
-224.5180152622209
 20
253.4861688198852
 30
0.0
 11
-219.3904035606373
 21
258.6137805214687
 31
0.0
  0
LINE
  5
44D
330
442
100
AcDbEntity
  8
0
 62
     0
100
AcDbLine
 10
-224.5180152622209
 20
256.3145959446314
 30
0.0
 11
-219.3771409990092
 21
261.455470207843
 31
0.0
  0
LINE
  5
44E
330
442
100
AcDbEntity
  8
0
 62
     0
100
AcDbLine
 10
-203.8435356387737
 20
276.9890755680786
 30
0.0
 11
-200.9980152622209
 21
279.8345959446314
 31
0.0
  0
LINE
  5
44F
330
442
100
AcDbEntity
  8
0
 62
     0
100
AcDbLine
 10
-224.5180152622209
 20
259.1430230693776
 30
0.0
 11
-219.363878437381
 21
264.2971598942174
 31
0.0
  0
LINE
  5
450
330
442
100
AcDbEntity
  8
0
 62
     0
100
AcDbLine
 10
-206.8650740202201
 20
276.7959643113784
 30
0.0
 11
-200.9980152622209
 21
282.6630230693776
 31
0.0
  0
LINE
  5
451
330
442
100
AcDbEntity
  8
0
 62
     0
100
AcDbLine
 10
-224.5180152622209
 20
261.9714501941238
 30
0.0
 11
-219.3506158757529
 21
267.1388495805918
 31
0.0
  0
LINE
  5
452
330
442
100
AcDbEntity
  8
0
 62
     0
100
AcDbLine
 10
-209.8866124016665
 20
276.6028530546781
 30
0.0
 11
-203.7134152928457
 21
282.776050163499
 31
0.0
  0
LINE
  5
453
330
442
100
AcDbEntity
  8
0
 62
     0
100
AcDbLine
 10
-224.5180152622209
 20
264.79987731887
 30
0.0
 11
-219.3373533141247
 21
269.9805392669662
 31
0.0
  0
LINE
  5
454
330
442
100
AcDbEntity
  8
0
 62
     0
100
AcDbLine
 10
-212.908150783113
 20
276.4097417979779
 30
0.0
 11
-206.5418424175919
 21
282.776050163499
 31
0.0
  0
LINE
  5
455
330
442
100
AcDbEntity
  8
0
 62
     0
100
AcDbLine
 10
-224.5180152622209
 20
267.6283044436162
 30
0.0
 11
-219.3240907524965
 21
272.8222289533405
 31
0.0
  0
LINE
  5
456
330
442
100
AcDbEntity
  8
0
 62
     0
100
AcDbLine
 10
-215.9296891645594
 20
276.2166305412776
 30
0.0
 11
-209.3702695423381
 21
282.776050163499
 31
0.0
  0
LINE
  5
457
330
442
100
AcDbEntity
  8
0
 62
     0
100
AcDbLine
 10
-224.5180152622209
 20
270.4567315683623
 30
0.0
 11
-213.7986966670841
 21
281.1760501634991
 31
0.0
  0
LINE
  5
458
330
442
100
AcDbEntity
  8
0
 62
     0
100
AcDbLine
 10
-224.5180152622209
 20
273.2851586931086
 30
0.0
 11
-216.6271237918303
 21
281.1760501634991
 31
0.0
  0
LINE
  5
459
330
442
100
AcDbEntity
  8
0
 62
     0
100
AcDbLine
 10
-224.5180152622209
 20
276.1135858178547
 30
0.0
 11
-219.4555509165765
 21
281.1760501634991
 31
0.0
  0
LINE
  5
45A
330
442
100
AcDbEntity
  8
0
 62
     0
100
AcDbLine
 10
-224.5180152622209
 20
278.9420129426009
 30
0.0
 11
-222.2839780413227
 21
281.1760501634991
 31
0.0
  0
LINE
  5
45B
330
442
100
AcDbEntity
  8
0
 62
     0
100
AcDbLine
 10
-224.5180152622209
 20
228.0303246971695
 30
0.0
 11
-219.5097666152909
 21
233.0385733440995
 31
0.0
  0
LINE
  5
45C
330
442
100
AcDbEntity
  8
0
 62
     0
100
AcDbLine
 10
-224.5180152622209
 20
225.2018975724233
 30
0.0
 11
-219.5230291769191
 21
230.1968836577251
 31
0.0
  0
LINE
  5
45D
330
442
100
AcDbEntity
  8
0
 62
     0
100
AcDbLine
 10
-224.5180152622209
 20
222.3734704476771
 30
0.0
 11
-219.5362917385472
 21
227.3551939713508
 31
0.0
  0
LINE
  5
45E
330
442
100
AcDbEntity
  8
0
 62
     0
100
AcDbLine
 10
-224.5180152622209
 20
219.5450433229309
 30
0.0
 11
-219.5495543001754
 21
224.5135042849764
 31
0.0
  0
LINE
  5
45F
330
442
100
AcDbEntity
  8
0
 62
     0
100
AcDbLine
 10
-224.5180152622209
 20
216.7166161981848
 30
0.0
 11
-219.5628168618036
 21
221.671814598602
 31
0.0
  0
LINE
  5
460
330
442
100
AcDbEntity
  8
0
 62
     0
100
AcDbLine
 10
-224.5180152622209
 20
213.8881890734386
 30
0.0
 11
-219.5760794234317
 21
218.8301249122277
 31
0.0
  0
LINE
  5
461
330
442
100
AcDbEntity
  8
0
 62
     0
100
AcDbLine
 10
-224.5180152622209
 20
211.0597619486924
 30
0.0
 11
-219.5893419850599
 21
215.9884352258533
 31
0.0
  0
LINE
  5
462
330
442
100
AcDbEntity
  8
0
 62
     0
100
AcDbLine
 10
-224.5180152622209
 20
208.2313348239462
 30
0.0
 11
-219.6026045466881
 21
213.146745539479
 31
0.0
  0
ENDBLK
  5
463
330
442
100
AcDbEntity
  8
0
100
AcDbBlockEnd
  0
BLOCK
  5
465
330
464
100
AcDbEntity
  8
0
100
AcDbBlockBegin
  2
*X13
 70
     1
 10
0.0
 20
0.0
 30
0.0
  3
*X13
  1

  0
LINE
  5
466
330
464
100
AcDbEntity
  8
0
 62
     0
100
AcDbLine
 10
-223.5425384318138
 20
206.378384529607
 30
0.0
 11
-219.6158671083162
 21
210.3050558531046
 31
0.0
  0
LINE
  5
467
330
464
100
AcDbEntity
  8
0
 62
     0
100
AcDbLine
 10
-221.5671379068789
 20
205.5253579297958
 30
0.0
 11
-219.6291296699445
 21
207.4633661667302
 31
0.0
  0
LINE
  5
468
330
464
100
AcDbEntity
  8
0
 62
     0
100
AcDbLine
 10
-220.283719635395
 20
203.9803490765335
 30
0.0
 11
-219.6423922315726
 21
204.6216764803558
 31
0.0
  0
ENDBLK
  5
469
330
464
100
AcDbEntity
  8
0
100
AcDbBlockEnd
  0
BLOCK
  5
46B
330
46A
100
AcDbEntity
  8
0
100
AcDbBlockBegin
  2
*X14
 70
     1
 10
0.0
 20
0.0
 30
0.0
  3
*X14
  1

  0
LINE
  5
46C
330
46A
100
AcDbEntity
  8
0
 62
     0
100
AcDbLine
 10
-224.5180152622209
 20
160.1480737032609
 30
0.0
 11
-222.9760346543226
 21
161.6900543111592
 31
0.0
  0
LINE
  5
46D
330
46A
100
AcDbEntity
  8
0
 62
     0
100
AcDbLine
 10
-221.5759714337384
 20
163.0901175317434
 30
0.0
 11
-220.6833633940862
 21
163.9827255713955
 31
0.0
  0
ENDBLK
  5
46E
330
46A
100
AcDbEntity
  8
0
100
AcDbBlockEnd
  0
BLOCK
  5
470
330
46F
100
AcDbEntity
  8
0
100
AcDbBlockBegin
  2
*X15
 70
     1
 10
0.0
 20
0.0
 30
0.0
  3
*X15
  1

  0
LINE
  5
471
330
46F
100
AcDbEntity
  8
0
 62
     0
100
AcDbLine
 10
-213.371556460714
 20
179.7798138790063
 30
0.0
 11
-205.9246676554435
 21
187.2267026842768
 31
0.0
  0
LINE
  5
472
330
46F
100
AcDbEntity
  8
0
 62
     0
100
AcDbLine
 10
-216.6120560962133
 20
179.3677413682532
 30
0.0
 11
-208.4342562589858
 21
187.5455412054807
 31
0.0
  0
LINE
  5
473
330
46F
100
AcDbEntity
  8
0
 62
     0
100
AcDbLine
 10
-219.7180152622209
 20
179.0902093269919
 30
0.0
 11
-210.943844862528
 21
187.8643797266846
 31
0.0
  0
LINE
  5
474
330
46F
100
AcDbEntity
  8
0
 62
     0
100
AcDbLine
 10
-219.7180152622209
 20
181.9186364517381
 30
0.0
 11
-213.4534334660703
 21
188.1832182478886
 31
0.0
  0
LINE
  5
475
330
46F
100
AcDbEntity
  8
0
 62
     0
100
AcDbLine
 10
-219.7180152622209
 20
184.7470635764843
 30
0.0
 11
-215.9630220696126
 21
188.5020567690926
 31
0.0
  0
LINE
  5
476
330
46F
100
AcDbEntity
  8
0
 62
     0
100
AcDbLine
 10
-219.7180152622209
 20
187.5754907012304
 30
0.0
 11
-218.4237505044384
 21
188.869755459013
 31
0.0
  0
LINE
  5
477
330
46F
100
AcDbEntity
  8
0
 62
     0
100
AcDbLine
 10
-219.7180152622209
 20
190.4039178259766
 30
0.0
 11
-219.6934340542163
 21
190.4284990339812
 31
0.0
  0
LINE
  5
478
330
46F
100
AcDbEntity
  8
0
 62
     0
100
AcDbLine
 10
-210.1310568252146
 20
180.1918863897595
 30
0.0
 11
-203.4150790519013
 21
186.9078641630729
 31
0.0
  0
LINE
  5
479
330
46F
100
AcDbEntity
  8
0
 62
     0
100
AcDbLine
 10
-206.8905571897153
 20
180.6039589005127
 30
0.0
 11
-201.2075829879761
 21
186.2869331022519
 31
0.0
  0
LINE
  5
47A
330
46F
100
AcDbEntity
  8
0
 62
     0
100
AcDbLine
 10
-203.6500575542159
 20
181.0160314112658
 30
0.0
 11
-200.5180152622209
 21
184.1480737032609
 31
0.0
  0
ENDBLK
  5
47B
330
46F
100
AcDbEntity
  8
0
100
AcDbBlockEnd
  0
BLOCK
  5
47D
330
47C
100
AcDbEntity
  8
0
100
AcDbBlockBegin
  2
*D16
 70
     1
 10
0.0
 20
0.0
 30
0.0
  3
*D16
  1

  0
LINE
  5
47E
330
47C
100
AcDbEntity
  8
AM_5
370
    -2
100
AcDbLine
 10
427.8066323742883
 20
1339.501678010429
 30
0.0
 11
427.8066323742883
 21
1402.626678010429
 31
0.0
  0
LINE
  5
47F
330
47C
100
AcDbEntity
  8
AM_5
370
    -2
100
AcDbLine
 10
1427.706632374288
 20
1338.251678010429
 30
0.0
 11
1427.706632374288
 21
1402.626678010429
 31
0.0
  0
LINE
  5
480
330
47C
100
AcDbEntity
  8
AM_5
370
    -2
100
AcDbLine
 10
445.3066323742882
 20
1396.376678010429
 30
0.0
 11
1410.206632374288
 21
1396.376678010429
 31
0.0
  0
SOLID
  5
481
330
47C
100
AcDbEntity
  8
AM_5
100
AcDbTrace
 10
445.3066323742882
 20
1399.293344677096
 30
0.0
 11
445.3066323742882
 21
1393.460011343762
 31
0.0
 12
427.8066323742883
 22
1396.376678010429
 32
0.0
 13
427.8066323742883
 23
1396.376678010429
 33
0.0
  0
SOLID
  5
482
330
47C
100
AcDbEntity
  8
AM_5
100
AcDbTrace
 10
1410.206632374288
 20
1399.293344677096
 30
0.0
 11
1410.206632374288
 21
1393.460011343762
 31
0.0
 12
1427.706632374288
 22
1396.376678010429
 32
0.0
 13
1427.706632374288
 23
1396.376678010429
 33
0.0
  0
MTEXT
  5
483
330
47C
100
AcDbEntity
  8
AM_5
 62
     3
100
AcDbMText
 10
927.7566323742883
 20
1408.251678010429
 30
0.0
 40
17.5
 41
0.0
 71
     5
 72
     1
  1
1000
 73
     1
 44
1.0
1001
ACAD
1000
MTEXTBEGIN
1070
    73
1070
     1
1070
    44
1040
1.0
1070
    74
1070
     0
1000
MTEXTEND
  0
POINT
  5
484
330
47C
100
AcDbEntity
  8
DEFPOINTS
 62
     0
100
AcDbPoint
 10
427.8066323742883
 20
1336.376678010429
 30
0.0
  0
POINT
  5
485
330
47C
100
AcDbEntity
  8
DEFPOINTS
 62
     0
100
AcDbPoint
 10
1427.706632374288
 20
1335.12667801043
 30
0.0
  0
POINT
  5
486
330
47C
100
AcDbEntity
  8
DEFPOINTS
 62
     0
100
AcDbPoint
 10
1427.706632374288
 20
1396.376678010429
 30
0.0
  0
ENDBLK
  5
487
330
47C
100
AcDbEntity
  8
0
100
AcDbBlockEnd
  0
BLOCK
  5
489
330
488
100
AcDbEntity
  8
0
100
AcDbBlockBegin
  2
*D17
 70
     1
 10
0.0
 20
0.0
 30
0.0
  3
*D17
  1

  0
LINE
  5
48A
330
488
100
AcDbEntity
  8
AM_5
370
    -2
100
AcDbLine
 10
1423.831632374288
 20
1256.376678010429
 30
0.0
 11
1486.956632374288
 21
1256.376678010429
 31
0.0
  0
LINE
  5
48B
330
488
100
AcDbEntity
  8
AM_5
370
    -2
100
AcDbLine
 10
1423.831632374288
 20
1336.37667801043
 30
0.0
 11
1486.956632374288
 21
1336.37667801043
 31
0.0
  0
LINE
  5
48C
330
488
100
AcDbEntity
  8
AM_5
370
    -2
100
AcDbLine
 10
1480.706632374288
 20
1273.876678010429
 30
0.0
 11
1480.706632374288
 21
1318.876678010429
 31
0.0
  0
SOLID
  5
48D
330
488
100
AcDbEntity
  8
AM_5
100
AcDbTrace
 10
1477.789965707622
 20
1273.876678010429
 30
0.0
 11
1483.623299040955
 21
1273.876678010429
 31
0.0
 12
1480.706632374288
 22
1256.376678010429
 32
0.0
 13
1480.706632374288
 23
1256.376678010429
 33
0.0
  0
SOLID
  5
48E
330
488
100
AcDbEntity
  8
AM_5
100
AcDbTrace
 10
1477.789965707622
 20
1318.876678010429
 30
0.0
 11
1483.623299040955
 21
1318.876678010429
 31
0.0
 12
1480.706632374288
 22
1336.37667801043
 32
0.0
 13
1480.706632374288
 23
1336.37667801043
 33
0.0
  0
MTEXT
  5
48F
330
488
100
AcDbEntity
  8
AM_5
 62
     3
100
AcDbMText
 10
1468.831632374288
 20
1296.376678010429
 30
0.0
 40
17.5
 41
0.0
 71
     5
 72
     1
  1
80
 11
0.0000000000000001
 21
1.0
 31
0.0
 73
     1
 44
1.0
1001
ACAD
1000
MTEXTBEGIN
1070
    73
1070
     1
1070
    44
1040
1.0
1070
    74
1070
     0
1000
MTEXTEND
  0
POINT
  5
490
330
488
100
AcDbEntity
  8
DEFPOINTS
 62
     0
100
AcDbPoint
 10
1420.706632374288
 20
1256.376678010429
 30
0.0
  0
POINT
  5
491
330
488
100
AcDbEntity
  8
DEFPOINTS
 62
     0
100
AcDbPoint
 10
1420.706632374288
 20
1336.37667801043
 30
0.0
  0
POINT
  5
492
330
488
100
AcDbEntity
  8
DEFPOINTS
 62
     0
100
AcDbPoint
 10
1480.706632374288
 20
1336.37667801043
 30
0.0
  0
ENDBLK
  5
493
330
488
100
AcDbEntity
  8
0
100
AcDbBlockEnd
  0
BLOCK
  5
495
330
494
100
AcDbEntity
  8
0
100
AcDbBlockBegin
  2
*D18
 70
     1
 10
0.0
 20
0.0
 30
0.0
  3
*D18
  1

  0
LINE
  5
496
330
494
100
AcDbEntity
  8
AM_5
370
    -2
100
AcDbLine
 10
1712.038251756505
 20
554.1105261992119
 30
0.0
 11
1782.162496134262
 21
554.1105261992119
 31
0.0
  0
LINE
  5
497
330
494
100
AcDbEntity
  8
AM_5
370
    -2
100
AcDbLine
 10
1712.038251756505
 20
1054.11052619921
 30
0.0
 11
1782.162496134262
 21
1054.11052619921
 31
0.0
  0
LINE
  5
498
330
494
100
AcDbEntity
  8
AM_5
370
    -2
100
AcDbLine
 10
1775.912496134262
 20
571.6105261992119
 30
0.0
 11
1775.912496134262
 21
1036.61052619921
 31
0.0
  0
SOLID
  5
499
330
494
100
AcDbEntity
  8
AM_5
100
AcDbTrace
 10
1772.995829467595
 20
571.6105261992119
 30
0.0
 11
1778.829162800929
 21
571.6105261992119
 31
0.0
 12
1775.912496134262
 22
554.1105261992119
 32
0.0
 13
1775.912496134262
 23
554.1105261992119
 33
0.0
  0
SOLID
  5
49A
330
494
100
AcDbEntity
  8
AM_5
100
AcDbTrace
 10
1772.995829467595
 20
1036.61052619921
 30
0.0
 11
1778.829162800929
 21
1036.61052619921
 31
0.0
 12
1775.912496134262
 22
1054.11052619921
 32
0.0
 13
1775.912496134262
 23
1054.11052619921
 33
0.0
  0
MTEXT
  5
49B
330
494
100
AcDbEntity
  8
AM_5
 62
     3
100
AcDbMText
 10
1764.037496134262
 20
805.3266662456907
 30
0.0
 40
17.5
 41
0.0
 71
     5
 72
     1
  1
500
 11
0.0000000000000001
 21
1.0
 31
0.0
 73
     1
 44
1.0
1001
ACAD
1000
MTEXTBEGIN
1070
    73
1070
     1
1070
    44
1040
1.0
1070
    74
1070
     0
1000
MTEXTEND
  0
POINT
  5
49C
330
494
100
AcDbEntity
  8
DEFPOINTS
 62
     0
100
AcDbPoint
 10
1708.913251756505
 20
554.1105261992119
 30
0.0
  0
POINT
  5
49D
330
494
100
AcDbEntity
  8
DEFPOINTS
 62
     0
100
AcDbPoint
 10
1708.913251756505
 20
1054.11052619921
 30
0.0
  0
POINT
  5
49E
330
494
100
AcDbEntity
  8
DEFPOINTS
 62
     0
100
AcDbPoint
 10
1775.912496134262
 20
1054.11052619921
 30
0.0
  0
ENDBLK
  5
49F
330
494
100
AcDbEntity
  8
0
100
AcDbBlockEnd
  0
BLOCK
  5
85A
330
859
100
AcDbEntity
  8
0
100
AcDbBlockBegin
  2
*D20
 70
     1
 10
0.0
 20
0.0
 30
0.0
  3
*D20
  1

  0
LINE
  5
87D
330
859
100
AcDbEntity
  8
AM_5
370
    -2
100
AcDbLine
 10
427.8066323742883
 20
1339.501678010429
 30
0.0
 11
427.8066323742883
 21
1402.626678010429
 31
0.0
  0
LINE
  5
87E
330
859
100
AcDbEntity
  8
AM_5
370
    -2
100
AcDbLine
 10
1427.706632374288
 20
1338.251678010429
 30
0.0
 11
1427.706632374288
 21
1402.626678010429
 31
0.0
  0
LINE
  5
87F
330
859
100
AcDbEntity
  8
AM_5
370
    -2
100
AcDbLine
 10
445.3066323742882
 20
1396.376678010429
 30
0.0
 11
1410.206632374288
 21
1396.376678010429
 31
0.0
  0
SOLID
  5
880
330
859
100
AcDbEntity
  8
AM_5
100
AcDbTrace
 10
445.3066323742882
 20
1399.293344677096
 30
0.0
 11
445.3066323742882
 21
1393.460011343762
 31
0.0
 12
427.8066323742883
 22
1396.376678010429
 32
0.0
 13
427.8066323742883
 23
1396.376678010429
 33
0.0
  0
SOLID
  5
881
330
859
100
AcDbEntity
  8
AM_5
100
AcDbTrace
 10
1410.206632374288
 20
1399.293344677096
 30
0.0
 11
1410.206632374288
 21
1393.460011343762
 31
0.0
 12
1427.706632374288
 22
1396.376678010429
 32
0.0
 13
1427.706632374288
 23
1396.376678010429
 33
0.0
  0
MTEXT
  5
882
330
859
100
AcDbEntity
  8
AM_5
 62
     3
100
AcDbMText
 10
927.7566323742883
 20
1408.251678010429
 30
0.0
 40
17.5
 41
0.0
 71
     5
 72
     1
  1
1000
 73
     1
 44
1.0
1001
ACAD
1000
MTEXTBEGIN
1070
    73
1070
     1
1070
    44
1040
1.0
1070
    74
1070
     0
1000
MTEXTEND
  0
POINT
  5
883
330
859
100
AcDbEntity
  8
DEFPOINTS
 62
     0
100
AcDbPoint
 10
427.8066323742883
 20
1336.376678010429
 30
0.0
  0
POINT
  5
884
330
859
100
AcDbEntity
  8
DEFPOINTS
 62
     0
100
AcDbPoint
 10
1427.706632374288
 20
1335.12667801043
 30
0.0
  0
POINT
  5
885
330
859
100
AcDbEntity
  8
DEFPOINTS
 62
     0
100
AcDbPoint
 10
1427.706632374288
 20
1396.376678010429
 30
0.0
  0
ENDBLK
  5
85B
330
859
100
AcDbEntity
  8
0
100
AcDbBlockEnd
  0
BLOCK
  5
866
330
865
100
AcDbEntity
  8
0
100
AcDbBlockBegin
  2
*D21
 70
     1
 10
0.0
 20
0.0
 30
0.0
  3
*D21
  1

  0
LINE
  5
886
330
865
100
AcDbEntity
  8
AM_5
370
    -2
100
AcDbLine
 10
1423.831632374288
 20
1256.376678010429
 30
0.0
 11
1486.956632374288
 21
1256.376678010429
 31
0.0
  0
LINE
  5
887
330
865
100
AcDbEntity
  8
AM_5
370
    -2
100
AcDbLine
 10
1423.831632374288
 20
1336.37667801043
 30
0.0
 11
1486.956632374288
 21
1336.37667801043
 31
0.0
  0
LINE
  5
888
330
865
100
AcDbEntity
  8
AM_5
370
    -2
100
AcDbLine
 10
1480.706632374288
 20
1273.876678010429
 30
0.0
 11
1480.706632374288
 21
1318.876678010429
 31
0.0
  0
SOLID
  5
889
330
865
100
AcDbEntity
  8
AM_5
100
AcDbTrace
 10
1477.789965707622
 20
1273.876678010429
 30
0.0
 11
1483.623299040955
 21
1273.876678010429
 31
0.0
 12
1480.706632374288
 22
1256.376678010429
 32
0.0
 13
1480.706632374288
 23
1256.376678010429
 33
0.0
  0
SOLID
  5
88A
330
865
100
AcDbEntity
  8
AM_5
100
AcDbTrace
 10
1477.789965707622
 20
1318.876678010429
 30
0.0
 11
1483.623299040955
 21
1318.876678010429
 31
0.0
 12
1480.706632374288
 22
1336.37667801043
 32
0.0
 13
1480.706632374288
 23
1336.37667801043
 33
0.0
  0
MTEXT
  5
88B
330
865
100
AcDbEntity
  8
AM_5
 62
     3
100
AcDbMText
 10
1468.831632374288
 20
1296.376678010429
 30
0.0
 40
17.5
 41
0.0
 71
     5
 72
     1
  1
80
 11
0.0000000000000001
 21
1.0
 31
0.0
 73
     1
 44
1.0
1001
ACAD
1000
MTEXTBEGIN
1070
    73
1070
     1
1070
    44
1040
1.0
1070
    74
1070
     0
1000
MTEXTEND
  0
POINT
  5
88C
330
865
100
AcDbEntity
  8
DEFPOINTS
 62
     0
100
AcDbPoint
 10
1420.706632374288
 20
1256.376678010429
 30
0.0
  0
POINT
  5
88D
330
865
100
AcDbEntity
  8
DEFPOINTS
 62
     0
100
AcDbPoint
 10
1420.706632374288
 20
1336.37667801043
 30
0.0
  0
POINT
  5
88E
330
865
100
AcDbEntity
  8
DEFPOINTS
 62
     0
100
AcDbPoint
 10
1480.706632374288
 20
1336.37667801043
 30
0.0
  0
ENDBLK
  5
867
330
865
100
AcDbEntity
  8
0
100
AcDbBlockEnd
  0
BLOCK
  5
872
330
871
100
AcDbEntity
  8
0
100
AcDbBlockBegin
  2
*D22
 70
     1
 10
0.0
 20
0.0
 30
0.0
  3
*D22
  1

  0
LINE
  5
88F
330
871
100
AcDbEntity
  8
AM_5
370
    -2
100
AcDbLine
 10
1712.038251756505
 20
554.1105261992119
 30
0.0
 11
1782.162496134262
 21
554.1105261992119
 31
0.0
  0
LINE
  5
890
330
871
100
AcDbEntity
  8
AM_5
370
    -2
100
AcDbLine
 10
1712.038251756505
 20
1054.11052619921
 30
0.0
 11
1782.162496134262
 21
1054.11052619921
 31
0.0
  0
LINE
  5
891
330
871
100
AcDbEntity
  8
AM_5
370
    -2
100
AcDbLine
 10
1775.912496134262
 20
571.6105261992119
 30
0.0
 11
1775.912496134262
 21
1036.61052619921
 31
0.0
  0
SOLID
  5
892
330
871
100
AcDbEntity
  8
AM_5
100
AcDbTrace
 10
1772.995829467595
 20
571.6105261992119
 30
0.0
 11
1778.829162800929
 21
571.6105261992119
 31
0.0
 12
1775.912496134262
 22
554.1105261992119
 32
0.0
 13
1775.912496134262
 23
554.1105261992119
 33
0.0
  0
SOLID
  5
893
330
871
100
AcDbEntity
  8
AM_5
100
AcDbTrace
 10
1772.995829467595
 20
1036.61052619921
 30
0.0
 11
1778.829162800929
 21
1036.61052619921
 31
0.0
 12
1775.912496134262
 22
1054.11052619921
 32
0.0
 13
1775.912496134262
 23
1054.11052619921
 33
0.0
  0
MTEXT
  5
894
330
871
100
AcDbEntity
  8
AM_5
 62
     3
100
AcDbMText
 10
1764.037496134262
 20
805.3266662456907
 30
0.0
 40
17.5
 41
0.0
 71
     5
 72
     1
  1
500
 11
0.0000000000000001
 21
1.0
 31
0.0
 73
     1
 44
1.0
1001
ACAD
1000
MTEXTBEGIN
1070
    73
1070
     1
1070
    44
1040
1.0
1070
    74
1070
     0
1000
MTEXTEND
  0
POINT
  5
895
330
871
100
AcDbEntity
  8
DEFPOINTS
 62
     0
100
AcDbPoint
 10
1708.913251756505
 20
554.1105261992119
 30
0.0
  0
POINT
  5
896
330
871
100
AcDbEntity
  8
DEFPOINTS
 62
     0
100
AcDbPoint
 10
1708.913251756505
 20
1054.11052619921
 30
0.0
  0
POINT
  5
897
330
871
100
AcDbEntity
  8
DEFPOINTS
 62
     0
100
AcDbPoint
 10
1775.912496134262
 20
1054.11052619921
 30
0.0
  0
ENDBLK
  5
873
330
871
100
AcDbEntity
  8
0
100
AcDbBlockEnd
  0
ENDSEC
  0
SECTION
  2
ENTITIES
  0
MTEXT
  5
136
330
17
100
AcDbEntity
  8
SICHTBAR
100
AcDbMText
 10
147.7897851914508
 20
522.9960869862297
 30
0.0
 40
2.5
 41
504.8999999999999
 71
     1
 72
     5
  1

  7
BEMASS-25
 73
     1
 44
1.0
1001
ACAD
1000
MTEXTBEGIN
1070
    73
1070
     1
1070
    44
1040
1.0
1070
    74
1070
     0
1000
MTEXTEND
  0
INSERT
  5
379
330
17
100
AcDbEntity
  8
AM_BOR
100
AcDbBlockReference
  2
RA_A3_AC
 10
0.0
 20
0.0
 30
0.0
 41
5.0
 42
5.0
 43
5.0
  0
INSERT
  5
3A0
330
17
100
AcDbEntity
  8
AM_BOR
100
AcDbBlockReference
 66
     1
  2
SF_WEB
 10
2070.0
 20
30.0
 30
0.0
 41
5.0
 42
5.0
 43
5.0
  0
ATTRIB
  5
3A1
330
3A0
100
AcDbEntity
  8
TEXT35
100
AcDbText
 10
1110.142788243675
 20
124.065215433708
 30
0.0
 40
15.0
  1
ACO Vario Schuhabstreifer Unterteil
 41
0.8000000000000001
  7
TEXT35
100
AcDbAttribute
  2
F2
 70
     0
  0
ATTRIB
  5
3A2
330
3A0
100
AcDbEntity
  8
TEXT35
100
AcDbText
 10
1110.142788243675
 20
101.9684241262067
 30
0.0
 40
15.0
  1
100x50cm mit Kantenschutz
 41
0.8000000000000001
  7
TEXT35
100
AcDbAttribute
  2
F3
 70
     0
  0
ATTRIB
  5
3A3
330
3A0
100
AcDbEntity
  8
TEXT25
100
AcDbText
 10
1754.650819982057
 20
38.90733732892428
 30
0.0
 40
12.5
  1

 41
0.8
  7
TEXT25
100
AcDbAttribute
  2
F11
 70
     0
  0
ATTRIB
  5
3A4
330
3A0
100
AcDbEntity
  8
TEXT25
100
AcDbText
 10
1565.904039771599
 20
112.6962326396464
 30
0.0
 40
10.0
  1
20.03.2013
 41
0.8
  7
TEXT20
100
AcDbAttribute
  2
F53
 70
     0
  0
ATTRIB
  5
3A5
330
3A0
100
AcDbEntity
  8
TEXT25
100
AcDbText
 10
1566.070135833568
 20
134.0752351233225
 30
0.0
 40
10.0
  1
20.03.2013
 41
0.8
  7
TEXT20
100
AcDbAttribute
  2
F9
 70
     0
  0
ATTRIB
  5
3A6
330
3A0
100
AcDbEntity
  8
TEXT25
100
AcDbText
 10
1630.422976814713
 20
113.8179318911811
 30
0.0
 40
10.0
  1
osetzke
 41
0.8
  7
TEXT20
100
AcDbAttribute
  2
F52
 70
     0
  0
ATTRIB
  5
3A7
330
3A0
100
AcDbEntity
  8
TEXT35
100
AcDbText
 10
1109.632591299629
 20
67.59610805190604
 30
0.0
 40
17.5
  1
Art.-Nr.:00400
 41
0.8000000000000001
  7
TEXT35
100
AcDbAttribute
  2
F13
 70
     0
  0
ATTRIB
  5
3A8
330
3A0
100
AcDbEntity
  8
TEXT25
100
AcDbText
 10
1630.4767963938
 20
133.6605533467595
 30
0.0
 40
10.0
  1
osetzke
 41
0.8
  7
TEXT20
100
AcDbAttribute
  2
F8
 70
     0
  0
ATTRIB
  5
3A9
330
3A0
100
AcDbEntity
  8
TEXT35
100
AcDbText
 10
1708.470276252485
 20
67.79414689820697
 30
0.0
 40
17.5
  1
G1-K03-033-3
 41
0.8000000000000001
  7
TEXT35
100
AcDbAttribute
  2
F1
 70
     0
  0
SEQEND
  5
3AA
330
3A0
100
AcDbEntity
  8
AM_BOR
  0
INSERT
  5
3CC
330
17
100
AcDbEntity
  8
AM_BOR
100
AcDbBlockReference
  2
logo_hochweb
 10
2070.0
 20
30.0
 30
0.0
 41
5.0
 42
5.0
 43
5.0
  0
LINE
  5
695
330
17
100
AcDbEntity
  8
SICHTBAR
100
AcDbLine
 10
429.0566323742882
 20
1336.37667801043
 30
0.0
 11
1426.456632374288
 21
1336.37667801043
 31
0.0
  0
LINE
  5
696
330
17
100
AcDbEntity
  8
SICHTBAR
100
AcDbLine
 10
435.8066323742882
 20
1256.376678010429
 30
0.0
 11
1420.706632374288
 21
1256.376678010429
 31
0.0
  0
LINE
  5
697
330
17
100
AcDbEntity
  8
VERDECKT
100
AcDbLine
 10
444.80663237429
 20
1316.376678010429
 30
0.0
 11
1425.206632374288
 21
1316.376678010429
 31
0.0
  0
LINE
  5
698
330
17
100
AcDbEntity
  8
SICHTBAR
100
AcDbLine
 10
429.3066323742887
 20
1315.176678010429
 30
0.0
 11
1426.206632374288
 21
1315.176678010429
 31
0.0
  0
LINE
  5
699
330
17
100
AcDbEntity
  8
SICHTBAR
100
AcDbLine
 10
1423.706632374289
 20
1289.376678010429
 30
0.0
 11
431.8066323742887
 21
1289.376678010429
 31
0.0
  0
LINE
  5
69A
330
17
100
AcDbEntity
  8
SICHTBAR
100
AcDbLine
 10
1419.706632374289
 20
1285.376678010429
 30
0.0
 11
435.8066323742882
 21
1285.376678010429
 31
0.0
  0
LINE
  5
69B
330
17
100
AcDbEntity
  8
VERDECKT
100
AcDbLine
 10
1112.729805638511
 20
1267.131902305296
 30
0.0
 11
1402.932589622554
 21
1267.131902305296
 31
0.0
  0
LINE
  5
69C
330
17
100
AcDbEntity
  8
VERDECKT
100
AcDbLine
 10
742.7834591100652
 20
1267.131902305296
 30
0.0
 11
452.5806751260229
 21
1267.131902305296
 31
0.0
  0
LINE
  5
69D
330
17
100
AcDbEntity
  8
VERDECKT
100
AcDbLine
 10
444.8705439426094
 20
1314.376678010429
 30
0.0
 11
447.5908556697677
 21
1271.812995118208
 31
0.0
  0
LINE
  5
69E
330
17
100
AcDbEntity
  8
SICHTBAR
100
AcDbLine
 10
435.8066323742882
 20
1285.37667801043
 30
0.0
 11
435.8066323742882
 21
1256.376678010429
 31
0.0
  0
ARC
  5
69F
330
17
100
AcDbEntity
  8
VERDECKT
100
AcDbCircle
 10
452.5806751260229
 20
1272.131902305296
 30
0.0
 40
5.0
100
AcDbArc
 50
183.6568894538981
 51
270.0
  0
LINE
  5
6A0
330
17
100
AcDbEntity
  8
SICHTBAR
100
AcDbLine
 10
431.8066323742887
 20
1315.176678010429
 30
0.0
 11
431.8066323742887
 21
1289.376678010429
 31
0.0
  0
LINE
  5
6A1
330
17
100
AcDbEntity
  8
SICHTBAR
100
AcDbLine
 10
435.8066323742882
 20
1285.376678010429
 30
0.0
 11
431.8066323742887
 21
1289.376678010429
 31
0.0
  0
LINE
  5
6A2
330
17
100
AcDbEntity
  8
VERDECKT
100
AcDbLine
 10
430.3066323742882
 20
1316.376678010429
 30
0.0
 11
444.3066323742882
 21
1316.376678010429
 31
0.0
  0
LINE
  5
6A3
330
17
100
AcDbEntity
  8
VERDECKT
100
AcDbLine
 10
429.7566323742885
 20
1316.376678010429
 30
0.0
 11
444.3066323742887
 21
1316.376678010429
 31
0.0
  0
LINE
  5
6A4
330
17
100
AcDbEntity
  8
SICHTBAR
100
AcDbLine
 10
429.0566323742882
 20
1336.376678010429
 30
0.0
 11
429.8066323742882
 21
1336.376678010429
 31
0.0
  0
ARC
  5
6A5
330
17
100
AcDbEntity
  8
SICHTBAR
100
AcDbCircle
 10
429.3066323742887
 20
1316.676678010429
 30
0.0
 40
1.5
100
AcDbArc
 50
180.0
 51
270.0
  0
ARC
  5
6A6
330
17
100
AcDbEntity
  8
VERDECKT
100
AcDbCircle
 10
429.7566323742885
 20
1317.076678010429
 30
0.0
 40
0.7
100
AcDbArc
 50
180.0
 51
270.0
  0
LINE
  5
6A7
330
17
100
AcDbEntity
  8
SICHTBAR
100
AcDbLine
 10
427.8066323742883
 20
1316.676678010429
 30
0.0
 11
427.8066323742883
 21
1335.126678010429
 31
0.0
  0
LINE
  5
6A8
330
17
100
AcDbEntity
  8
VERDECKT
100
AcDbLine
 10
429.0566323742882
 20
1324.376678010429
 30
0.0
 11
429.0566323742882
 21
1317.076678010429
 31
0.0
  0
LINE
  5
6A9
330
17
100
AcDbEntity
  8
VERDECKT
100
AcDbLine
 10
429.0566323742882
 20
1324.376678010429
 30
0.0
 11
429.0566323742882
 21
1335.12884321384
 31
0.0
  0
ARC
  5
6AA
330
17
100
AcDbEntity
  8
VERDECKT
100
AcDbCircle
 10
429.0566323742882
 20
1335.126678010429
 30
0.0
 40
1.25
100
AcDbArc
 50
0.0
 51
90.0
  0
LINE
  5
6AB
330
17
100
AcDbEntity
  8
VERDECKT
100
AcDbLine
 10
430.3066323742882
 20
1335.126678010429
 30
0.0
 11
430.3066323742882
 21
1324.376678010429
 31
0.0
  0
LINE
  5
6AC
330
17
100
AcDbEntity
  8
VERDECKT
100
AcDbLine
 10
430.3066323742882
 20
1324.376678010429
 30
0.0
 11
429.0566323742882
 21
1324.376678010429
 31
0.0
  0
ARC
  5
6AD
330
17
100
AcDbEntity
  8
SICHTBAR
100
AcDbCircle
 10
429.0566323742882
 20
1335.126678010429
 30
0.0
 40
1.25
100
AcDbArc
 50
90.0
 51
180.0
  0
ARC
  5
6AE
330
17
100
AcDbEntity
  8
SICHTBAR
100
AcDbCircle
 10
428.8066323742887
 20
1335.376678010429
 30
0.0
 40
1.000000000000007
100
AcDbArc
 50
180.0
 51
180.0
  0
LINE
  5
6AF
330
17
100
AcDbEntity
  8
DUENN
100
AcDbLine
 10
429.0566323742882
 20
1336.376678010429
 30
0.0
 11
427.8066323742883
 21
1336.376678010429
 31
0.0
  0
LINE
  5
6B0
330
17
100
AcDbEntity
  8
DUENN
100
AcDbLine
 10
427.8066323742883
 20
1335.126678010429
 30
0.0
 11
427.8066323742883
 21
1336.376678010429
 31
0.0
  0
LINE
  5
6B1
330
17
100
AcDbEntity
  8
VERDECKT
100
AcDbLine
 10
444.8066323742883
 20
1315.376678010429
 30
0.0
 11
444.8705439426089
 21
1314.376678010429
 31
0.0
  0
LINE
  5
6B2
330
17
100
AcDbEntity
  8
VERDECKT
100
AcDbLine
 10
444.8066323742883
 20
1315.876678010429
 30
0.0
 11
444.8066323742883
 21
1315.376678010429
 31
0.0
  0
ARC
  5
6B3
330
17
100
AcDbEntity
  8
VERDECKT
100
AcDbCircle
 10
444.3066323742882
 20
1315.876678010429
 30
0.0
 40
0.5
100
AcDbArc
 50
0.0
 51
90.0
  0
LINE
  5
6B4
330
17
100
AcDbEntity
  8
VERDECKT
100
AcDbLine
 10
977.716160645656
 20
1267.37667801043
 30
0.0
 11
1076.116039288124
 21
1267.37667801043
 31
0.0
  0
LINE
  5
6B5
330
17
100
AcDbEntity
  8
VERDECKT
100
AcDbLine
 10
779.4016256607751
 20
1267.376678010431
 30
0.0
 11
877.793472623504
 21
1267.376678010431
 31
0.0
  0
LINE
  5
6B6
330
17
100
AcDbEntity
  8
VERDECKT
100
AcDbLine
 10
747.7436168458226
 20
1271.249223133475
 30
0.0
 11
753.8423336694473
 21
1311.259207721514
 31
0.0
  0
LINE
  5
6B7
330
17
100
AcDbEntity
  8
VERDECKT
100
AcDbLine
 10
774.4802422290391
 20
1271.493510349205
 30
0.0
 11
768.420699052096
 21
1311.259845671655
 31
0.0
  0
ARC
  5
6B8
330
17
100
AcDbEntity
  8
VERDECKT
100
AcDbCircle
 10
742.8221189733189
 20
1272.131752844559
 30
0.0
 40
5.0
100
AcDbArc
 50
269.5569861855889
 51
349.8336934403657
  0
ARC
  5
6B9
330
17
100
AcDbEntity
  8
VERDECKT
100
AcDbCircle
 10
779.4016256607751
 20
1272.376678010431
 30
0.0
 40
5.0
100
AcDbArc
 50
190.1737336228039
 51
270.0
  0
ARC
  5
6BA
330
17
100
AcDbEntity
  8
VERDECKT
100
AcDbCircle
 10
763.4993156203604
 20
1310.37667801043
 30
0.0
 40
5.0
100
AcDbArc
 50
10.17373362280392
 51
90.0
  0
ARC
  5
6BB
330
17
100
AcDbEntity
  8
VERDECKT
100
AcDbCircle
 10
758.7638315419503
 20
1310.37667801043
 30
0.0
 40
5.0
100
AcDbArc
 50
90.0
 51
169.8336934403657
  0
LINE
  5
6BC
330
17
100
AcDbEntity
  8
VERDECKT
100
AcDbLine
 10
758.7638315419503
 20
1315.376678010429
 30
0.0
 11
763.4993156203604
 21
1315.376678010429
 31
0.0
  0
LINE
  5
6BD
330
17
100
AcDbEntity
  8
VERDECKT
100
AcDbLine
 10
877.793472623504
 20
1267.376678010431
 30
0.0
 11
977.7911606456564
 21
1267.376678010431
 31
0.0
  0
LINE
  5
6BE
330
17
100
AcDbEntity
  8
VERDECKT
100
AcDbLine
 10
877.775970022019
 20
1262.558335718604
 30
0.0
 11
977.7845524824256
 21
1262.558335718604
 31
0.0
  0
LINE
  5
6BF
330
17
100
AcDbEntity
  8
VERDECKT
100
AcDbLine
 10
872.7941323742893
 20
1262.576432216056
 30
0.0
 11
871.2941323742894
 21
1256.376678010431
 31
0.0
  0
LINE
  5
6C0
330
17
100
AcDbEntity
  8
VERDECKT
100
AcDbLine
 10
877.793472623504
 20
1267.376678010431
 30
0.0
 11
877.775970022019
 21
1262.558335718604
 31
0.0
  0
LINE
  5
6C1
330
17
100
AcDbEntity
  8
VERDECKT
100
AcDbLine
 10
872.7941323742893
 20
1262.576432216056
 30
0.0
 11
877.775970022019
 21
1262.558335718604
 31
0.0
  0
LINE
  5
6C2
330
17
100
AcDbEntity
  8
MITTE
100
AcDbLine
 10
927.7566323742885
 20
1236.365218980947
 30
0.0
 11
927.7566323742885
 21
1321.276037591946
 31
0.0
  0
LINE
  5
6C3
330
17
100
AcDbEntity
  8
VERDECKT
100
AcDbLine
 10
982.7277148346952
 20
1262.540107271863
 30
0.0
 11
984.2191323742886
 21
1256.37667801043
 31
0.0
  0
LINE
  5
6C4
330
17
100
AcDbEntity
  8
VERDECKT
100
AcDbLine
 10
977.6986581879214
 20
1262.558375292066
 30
0.0
 11
982.7277148346952
 21
1262.540107271863
 31
0.0
  0
LINE
  5
6C5
330
17
100
AcDbEntity
  8
VERDECKT
100
AcDbLine
 10
977.716160645656
 20
1267.37667801043
 30
0.0
 11
977.6986581879214
 21
1262.558375292066
 31
0.0
  0
LINE
  5
6C6
330
17
100
AcDbEntity
  8
VERDECKT
100
AcDbLine
 10
1107.730242229038
 20
1271.493510349204
 30
0.0
 11
1101.670699052095
 21
1311.259845671655
 31
0.0
  0
LINE
  5
6C7
330
17
100
AcDbEntity
  8
VERDECKT
100
AcDbLine
 10
1081.037537160627
 20
1271.494148299345
 30
0.0
 11
1087.092333669446
 21
1311.259207721514
 31
0.0
  0
ARC
  5
6C8
330
17
100
AcDbEntity
  8
VERDECKT
100
AcDbCircle
 10
1076.116039288124
 20
1272.37667801043
 30
0.0
 40
5.0
100
AcDbArc
 50
270.0
 51
349.8336934403657
  0
ARC
  5
6C9
330
17
100
AcDbEntity
  8
VERDECKT
100
AcDbCircle
 10
1112.653521688044
 20
1272.131419517018
 30
0.0
 40
5.0
100
AcDbArc
 50
190.1737336228039
 51
270.0
  0
ARC
  5
6CA
330
17
100
AcDbEntity
  8
VERDECKT
100
AcDbCircle
 10
1092.013831541949
 20
1310.376678010429
 30
0.0
 40
5.0
100
AcDbArc
 50
90.0
 51
169.8336934403657
  0
ARC
  5
6CB
330
17
100
AcDbEntity
  8
VERDECKT
100
AcDbCircle
 10
1096.74931562036
 20
1310.376678010429
 30
0.0
 40
5.0
100
AcDbArc
 50
10.17373362280392
 51
90.0
  0
LINE
  5
6CC
330
17
100
AcDbEntity
  8
VERDECKT
100
AcDbLine
 10
1092.013831541949
 20
1315.376678010429
 30
0.0
 11
1096.74931562036
 21
1315.376678010429
 31
0.0
  0
LINE
  5
6CD
330
17
100
AcDbEntity
  8
SICHTBAR
100
AcDbLine
 10
1419.706632374289
 20
1285.376678010429
 30
0.0
 11
1419.706632374288
 21
1256.376678010429
 31
0.0
  0
LINE
  5
6CE
330
17
100
AcDbEntity
  8
VERDECKT
100
AcDbLine
 10
1410.642720805967
 20
1314.376678010429
 30
0.0
 11
1407.922409078809
 21
1271.812995118208
 31
0.0
  0
ARC
  5
6CF
330
17
100
AcDbEntity
  8
VERDECKT
100
AcDbCircle
 10
1402.932589622554
 20
1272.131902305296
 30
0.0
 40
5.0
100
AcDbArc
 50
270.0
 51
356.3431105461019
  0
LINE
  5
6D0
330
17
100
AcDbEntity
  8
SICHTBAR
100
AcDbLine
 10
1423.706632374289
 20
1315.176678010429
 30
0.0
 11
1423.706632374289
 21
1289.376678010429
 31
0.0
  0
LINE
  5
6D1
330
17
100
AcDbEntity
  8
SICHTBAR
100
AcDbLine
 10
1423.706632374289
 20
1289.376678010429
 30
0.0
 11
1419.706632374288
 21
1285.376678010429
 31
0.0
  0
LINE
  5
6D2
330
17
100
AcDbEntity
  8
VERDECKT
100
AcDbLine
 10
1425.756632374288
 20
1316.37667801043
 30
0.0
 11
1411.206632374288
 21
1316.37667801043
 31
0.0
  0
ARC
  5
6D3
330
17
100
AcDbEntity
  8
VERDECKT
100
AcDbCircle
 10
1411.206632374289
 20
1315.876678010429
 30
0.0
 40
0.5
100
AcDbArc
 50
90.0
 51
180.0
  0
LINE
  5
6D4
330
17
100
AcDbEntity
  8
VERDECKT
100
AcDbLine
 10
1410.706632374288
 20
1315.876678010429
 30
0.0
 11
1410.706632374288
 21
1315.376678010429
 31
0.0
  0
LINE
  5
6D5
330
17
100
AcDbEntity
  8
VERDECKT
100
AcDbLine
 10
1410.706632374288
 20
1315.376678010429
 30
0.0
 11
1410.642720805967
 21
1314.376678010429
 31
0.0
  0
LINE
  5
6D6
330
17
100
AcDbEntity
  8
VERDECKT
100
AcDbLine
 10
1410.706632374288
 20
1315.876678010429
 30
0.0
 11
1410.706632374288
 21
1315.376678010429
 31
0.0
  0
ARC
  5
6D7
330
17
100
AcDbEntity
  8
SICHTBAR
100
AcDbCircle
 10
1426.456632374288
 20
1335.12667801043
 30
0.0
 40
1.25
100
AcDbArc
 50
0.0
 51
90.0
  0
LINE
  5
6D8
330
17
100
AcDbEntity
  8
VERDECKT
100
AcDbLine
 10
1425.206632374288
 20
1324.37667801043
 30
0.0
 11
1426.456632374288
 21
1324.37667801043
 31
0.0
  0
LINE
  5
6D9
330
17
100
AcDbEntity
  8
VERDECKT
100
AcDbLine
 10
1425.206632374288
 20
1335.12667801043
 30
0.0
 11
1425.206632374288
 21
1324.37667801043
 31
0.0
  0
ARC
  5
6DA
330
17
100
AcDbEntity
  8
VERDECKT
100
AcDbCircle
 10
1426.456632374288
 20
1335.12667801043
 30
0.0
 40
1.25
100
AcDbArc
 50
90.0
 51
180.0
  0
LINE
  5
6DB
330
17
100
AcDbEntity
  8
VERDECKT
100
AcDbLine
 10
1426.456632374288
 20
1324.37667801043
 30
0.0
 11
1426.456632374288
 21
1335.12884321384
 31
0.0
  0
LINE
  5
6DC
330
17
100
AcDbEntity
  8
VERDECKT
100
AcDbLine
 10
1426.456632374288
 20
1324.37667801043
 30
0.0
 11
1426.456632374288
 21
1317.076678010429
 31
0.0
  0
LINE
  5
6DD
330
17
100
AcDbEntity
  8
SICHTBAR
100
AcDbLine
 10
1427.706632374288
 20
1316.676678010429
 30
0.0
 11
1427.706632374288
 21
1335.12667801043
 31
0.0
  0
ARC
  5
6DE
330
17
100
AcDbEntity
  8
VERDECKT
100
AcDbCircle
 10
1425.756632374288
 20
1317.076678010429
 30
0.0
 40
0.7
100
AcDbArc
 50
270.0
 51
0.0
  0
ARC
  5
6DF
330
17
100
AcDbEntity
  8
SICHTBAR
100
AcDbCircle
 10
1426.206632374288
 20
1316.676678010429
 30
0.0
 40
1.5
100
AcDbArc
 50
270.0
 51
0.0
  0
LINE
  5
6E0
330
17
100
AcDbEntity
  8
SICHTBAR
100
AcDbLine
 10
1949.537860642569
 20
1054.11052619921
 30
0.0
 11
1949.537860642569
 21
555.3605261992118
 31
0.0
  0
LINE
  5
6E1
330
17
100
AcDbEntity
  8
SICHTBAR
100
AcDbLine
 10
1929.537860642569
 20
1052.16052619921
 30
0.0
 11
1929.537860642569
 21
556.0605261992118
 31
0.0
  0
LINE
  5
6E2
330
17
100
AcDbEntity
  8
SICHTBAR
100
AcDbLine
 10
1869.537860642569
 20
747.6105261992121
 30
0.0
 11
1869.537860642569
 21
561.1105261992118
 31
0.0
  0
LINE
  5
6E3
330
17
100
AcDbEntity
  8
SICHTBAR
100
AcDbLine
 10
1881.690804676974
 20
755.7776096074035
 30
0.0
 11
1882.537860642569
 21
578.7406818955217
 31
0.0
  0
INSERT
  5
6E4
330
17
100
AcDbEntity
  8
SCHRAFF
100
AcDbBlockReference
  2
*X11
 10
2430.832898798121
 20
344.1704007904627
 30
0.0
 41
2.5
 42
2.5
 43
2.5
  0
LINE
  5
6E5
330
17
100
AcDbEntity
  8
SICHTBAR
100
AcDbLine
 10
1657.913251756505
 20
785.1105261992115
 30
0.0
 11
1657.913251756505
 21
561.1105261992122
 31
0.0
  0
LINE
  5
6E6
330
17
100
AcDbEntity
  8
SICHTBAR
100
AcDbLine
 10
1661.913251756505
 20
785.1105261992115
 30
0.0
 11
1661.913251756505
 21
557.1105261992125
 31
0.0
  0
LINE
  5
6E7
330
17
100
AcDbEntity
  8
SICHTBAR
100
AcDbLine
 10
1686.913251756505
 20
571.1744376652834
 30
0.0
 11
1686.913251756505
 21
1054.11052619921
 31
0.0
  0
LINE
  5
6E8
330
17
100
AcDbEntity
  8
VERDECKT
100
AcDbLine
 10
1688.913251756505
 20
1037.610526199211
 30
0.0
 11
1688.913251756505
 21
570.610526199212
 31
0.0
  0
LINE
  5
6E9
330
17
100
AcDbEntity
  8
SICHTBAR
100
AcDbLine
 10
1628.913251756505
 20
1047.11052619921
 30
0.0
 11
1628.913251756505
 21
561.1105261992125
 31
0.0
  0
LINE
  5
6EA
330
17
100
AcDbEntity
  8
SICHTBAR
100
AcDbLine
 10
1708.913251756505
 20
554.1105261992119
 30
0.0
 11
1708.913251756505
 21
1054.11052619921
 31
0.0
  0
LINE
  5
6EB
330
17
100
AcDbEntity
  8
VERDECKT
100
AcDbLine
 10
1639.913251756505
 20
754.1134979278446
 30
0.0
 11
1641.913773864467
 21
578.6962834324411
 31
0.0
  0
LINE
  5
6EC
330
17
100
AcDbEntity
  8
SICHTBAR
100
AcDbLine
 10
1657.913251756505
 20
561.1105261992123
 30
0.0
 11
1628.913251756505
 21
561.1105261992125
 31
0.0
  0
LINE
  5
6ED
330
17
100
AcDbEntity
  8
VERDECKT
100
AcDbLine
 10
1686.913251756505
 20
571.1744376652834
 30
0.0
 11
1646.530094465883
 21
573.7553844523366
 31
0.0
  0
ARC
  5
6EE
330
17
100
AcDbEntity
  8
VERDECKT
100
AcDbCircle
 10
1646.913576960307
 20
578.7406568798444
 30
0.0
 40
5.0
100
AcDbArc
 50
180.50848892666
 51
265.6012946450035
  0
LINE
  5
6EF
330
17
100
AcDbEntity
  8
DUENN
100
AcDbLine
 10
1887.154378148145
 20
573.7554094680139
 30
0.0
 11
1882.537860642569
 21
574.1105261992118
 31
0.0
  0
ARC
  5
6F0
330
17
100
AcDbEntity
  8
SICHTBAR
100
AcDbCircle
 10
1887.537860642569
 20
578.7406818955217
 30
0.0
 40
5.0
100
AcDbArc
 50
180.0
 51
265.6012946450035
  0
LINE
  5
6F1
330
17
100
AcDbEntity
  8
SICHTBAR
100
AcDbLine
 10
1898.537860642569
 20
561.1105261992118
 30
0.0
 11
1869.537860642569
 21
561.1105261992118
 31
0.0
  0
INSERT
  5
6F2
330
17
100
AcDbEntity
  8
SCHRAFF
100
AcDbBlockReference
  2
*X9
 10
2430.832898798121
 20
394.1704007904627
 30
0.0
 41
2.5
 42
2.5
 43
2.5
  0
INSERT
  5
6F3
330
17
100
AcDbEntity
  8
SCHRAFF
100
AcDbBlockReference
  2
*X10
 10
2430.832898798121
 20
394.1704007904627
 30
0.0
 41
2.5
 42
2.5
 43
2.5
  0
LINE
  5
6F4
330
17
100
AcDbEntity
  8
VERDECKT
100
AcDbLine
 10
1686.913251756505
 20
554.1105261992119
 30
0.0
 11
1686.913251756505
 21
571.110526199212
 31
0.0
  0
LINE
  5
6F5
330
17
100
AcDbEntity
  8
VERDECKT
100
AcDbLine
 10
1688.913251756505
 20
556.6105261992118
 30
0.0
 11
1688.913251756505
 21
570.610526199212
 31
0.0
  0
LINE
  5
6F6
330
17
100
AcDbEntity
  8
SICHTBAR
100
AcDbLine
 10
1686.913251756505
 20
554.1105261992119
 30
0.0
 11
1708.913251756505
 21
554.1105261992119
 31
0.0
  0
LINE
  5
6F7
330
17
100
AcDbEntity
  8
VERDECKT
100
AcDbLine
 10
1708.413251756505
 20
556.1105261992119
 30
0.0
 11
1689.413251756505
 21
556.1105261992119
 31
0.0
  0
LINE
  5
6F8
330
17
100
AcDbEntity
  8
SICHTBAR
100
AcDbLine
 10
1686.913251756505
 20
557.1105261992125
 30
0.0
 11
1661.913251756505
 21
557.1105261992125
 31
0.0
  0
LINE
  5
6F9
330
17
100
AcDbEntity
  8
SICHTBAR
100
AcDbLine
 10
1657.913251756505
 20
561.1105261992122
 30
0.0
 11
1661.913251756505
 21
557.1105261992125
 31
0.0
  0
ARC
  5
6FA
330
17
100
AcDbEntity
  8
VERDECKT
100
AcDbCircle
 10
1689.413251756505
 20
556.6105261992118
 30
0.0
 40
0.5
100
AcDbArc
 50
180.0
 51
270.0
  0
ARC
  5
6FB
330
17
100
AcDbEntity
  8
VERDECKT
100
AcDbCircle
 10
1688.413251756505
 20
570.610526199212
 30
0.0
 40
0.5
100
AcDbArc
 50
0.0
 51
90.0
  0
LINE
  5
6FC
330
17
100
AcDbEntity
  8
VERDECKT
100
AcDbLine
 10
1688.413251756505
 20
571.110526199212
 30
0.0
 11
1687.913251756506
 21
571.110526199212
 31
0.0
  0
LINE
  5
6FD
330
17
100
AcDbEntity
  8
VERDECKT
100
AcDbLine
 10
1687.913251756506
 20
571.1105261992115
 30
0.0
 11
1686.913251756505
 21
571.1744376652834
 31
0.0
  0
LINE
  5
6FE
330
17
100
AcDbEntity
  8
DUENN
100
AcDbLine
 10
1882.537860642569
 20
574.1105261992118
 30
0.0
 11
1882.537860642569
 21
578.7406818955217
 31
0.0
  0
LINE
  5
6FF
330
17
100
AcDbEntity
  8
SICHTBAR
100
AcDbLine
 10
1928.337860642569
 20
558.6105261992117
 30
0.0
 11
1928.337860642569
 21
570.610526199212
 31
0.0
  0
LINE
  5
700
330
17
100
AcDbEntity
  8
SICHTBAR
100
AcDbLine
 10
1929.537860642569
 20
556.0605261992118
 30
0.0
 11
1929.537860642569
 21
570.610526199212
 31
0.0
  0
INSERT
  5
701
330
17
100
AcDbEntity
  8
SCHRAFF
100
AcDbBlockReference
  2
*X8
 10
1601.408844204621
 20
718.1007458641659
 30
0.0
 41
-1.0
 50
270.0
  0
LINE
  5
702
330
17
100
AcDbEntity
  8
SICHTBAR
100
AcDbLine
 10
1928.337860642569
 20
557.110526199212
 30
0.0
 11
1902.537860642569
 21
557.110526199212
 31
0.0
  0
LINE
  5
703
330
17
100
AcDbEntity
  8
SICHTBAR
100
AcDbLine
 10
1898.537860642569
 20
561.1105261992118
 30
0.0
 11
1902.537860642569
 21
557.110526199212
 31
0.0
  0
LINE
  5
704
330
17
100
AcDbEntity
  8
SICHTBAR
100
AcDbLine
 10
1929.837860642569
 20
554.1105261992119
 30
0.0
 11
1948.287860642569
 21
554.1105261992119
 31
0.0
  0
LINE
  5
705
330
17
100
AcDbEntity
  8
SICHTBAR
100
AcDbLine
 10
1948.287860642569
 20
556.6105261992118
 30
0.0
 11
1937.537860642569
 21
556.6105261992118
 31
0.0
  0
LINE
  5
706
330
17
100
AcDbEntity
  8
SICHTBAR
100
AcDbLine
 10
1937.537860642569
 20
555.3605261992118
 30
0.0
 11
1948.29002584598
 21
555.3605261992118
 31
0.0
  0
ARC
  5
707
330
17
100
AcDbEntity
  8
SICHTBAR
100
AcDbCircle
 10
1930.237860642569
 20
556.0605261992118
 30
0.0
 40
0.7
100
AcDbArc
 50
180.0
 51
270.0
  0
ARC
  5
708
330
17
100
AcDbEntity
  8
SICHTBAR
100
AcDbCircle
 10
1929.837860642569
 20
555.610526199212
 30
0.0
 40
1.5
100
AcDbArc
 50
180.0
 51
270.0
  0
LINE
  5
709
330
17
100
AcDbEntity
  8
SICHTBAR
100
AcDbLine
 10
1928.337860642569
 20
555.610526199212
 30
0.0
 11
1928.337860642569
 21
558.6105261992117
 31
0.0
  0
LINE
  5
70A
330
17
100
AcDbEntity
  8
SICHTBAR
100
AcDbLine
 10
1937.537860642569
 20
556.6105261992118
 30
0.0
 11
1937.537860642569
 21
555.3605261992118
 31
0.0
  0
LINE
  5
70B
330
17
100
AcDbEntity
  8
SICHTBAR
100
AcDbLine
 10
1937.537860642569
 20
555.3605261992118
 30
0.0
 11
1930.237860642569
 21
555.3605261992118
 31
0.0
  0
LINE
  5
70C
330
17
100
AcDbEntity
  8
SICHTBAR
100
AcDbLine
 10
1949.537860642569
 20
554.110526199212
 30
0.0
 11
1949.537860642569
 21
556.1105261992119
 31
0.0
  0
POINT
  5
70D
330
17
100
AcDbEntity
  8
RED
  6
ByBlock
 62
     1
100
AcDbPoint
 10
1948.020627029769
 20
554.1105261992119
 30
0.0
  0
POINT
  5
70E
330
17
100
AcDbEntity
  8
RED
  6
ByBlock
 62
     1
100
AcDbPoint
 10
1949.537860642569
 20
555.3605261992118
 30
0.0
  0
LINE
  5
70F
330
17
100
AcDbEntity
  8
DUENN
100
AcDbLine
 10
1949.537860642569
 20
555.3605261992118
 30
0.0
 11
1949.537860642569
 21
554.1105261992119
 31
0.0
  0
LINE
  5
710
330
17
100
AcDbEntity
  8
SICHTBAR
100
AcDbLine
 10
1949.537860642569
 20
554.1105261992119
 30
0.0
 11
1949.537860642569
 21
556.1105261992118
 31
0.0
  0
LINE
  5
711
330
17
100
AcDbEntity
  8
SICHTBAR
100
AcDbLine
 10
1949.537860642569
 20
555.3605261992118
 30
0.0
 11
1949.537860642569
 21
556.1105261992118
 31
0.0
  0
LINE
  5
712
330
17
100
AcDbEntity
  8
DUENN
100
AcDbLine
 10
1948.287860642569
 20
554.1105261992119
 30
0.0
 11
1949.537860642569
 21
554.1105261992119
 31
0.0
  0
LINE
  5
713
330
17
100
AcDbEntity
  8
DUENN
100
AcDbLine
 10
1949.537860642569
 20
555.3605261992118
 30
0.0
 11
1949.537860642569
 21
554.1105261992119
 31
0.0
  0
ARC
  5
714
330
17
100
AcDbEntity
  8
SICHTBAR
100
AcDbCircle
 10
1948.287860642569
 20
555.3605261992118
 30
0.0
 40
1.25
100
AcDbArc
 50
270.0
 51
90.0
  0
ARC
  5
715
330
17
100
AcDbEntity
  8
SICHTBAR
100
AcDbCircle
 10
1948.537860642569
 20
555.1105261992118
 30
0.0
 40
1.000000000000007
100
AcDbArc
 50
270.0
 51
270.0
  0
POINT
  5
716
330
17
100
AcDbEntity
  8
RED
  6
ByBlock
 62
     1
100
AcDbPoint
 10
1949.572512810167
 20
555.3605261992118
 30
0.0
  0
LINE
  5
717
330
17
100
AcDbEntity
  8
DUENN
100
AcDbLine
 10
1949.572512810167
 20
554.1105261992119
 30
0.0
 11
1948.322512810167
 21
554.1105261992119
 31
0.0
  0
LINE
  5
718
330
17
100
AcDbEntity
  8
SICHTBAR
100
AcDbLine
 10
1949.537860642569
 20
555.3605261992118
 30
0.0
 11
1949.537860642569
 21
556.1105261992118
 31
0.0
  0
POINT
  5
719
330
17
100
AcDbEntity
  8
RED
  6
ByBlock
 62
     1
100
AcDbPoint
 10
1948.020627029769
 20
554.1105261992119
 30
0.0
  0
POINT
  5
71A
330
17
100
AcDbEntity
  8
RED
  6
ByBlock
 62
     1
100
AcDbPoint
 10
1949.537860642569
 20
552.8605261992119
 30
0.0
  0
LINE
  5
71B
330
17
100
AcDbEntity
  8
SICHTBAR
100
AcDbLine
 10
1927.537860642569
 20
571.1744377675329
 30
0.0
 11
1887.154378148145
 21
573.7554094680139
 31
0.0
  0
LINE
  5
71C
330
17
100
AcDbEntity
  8
SICHTBAR
100
AcDbLine
 10
1928.337860642569
 20
570.610526199212
 30
0.0
 11
1929.537860642569
 21
570.610526199212
 31
0.0
  0
LINE
  5
71D
330
17
100
AcDbEntity
  8
SICHTBAR
100
AcDbLine
 10
1928.537860642569
 20
571.1105261992117
 30
0.0
 11
1927.537860642569
 21
571.1744377675326
 31
0.0
  0
LINE
  5
71E
330
17
100
AcDbEntity
  8
SICHTBAR
100
AcDbLine
 10
1929.037860642569
 20
571.1105261992117
 30
0.0
 11
1928.537860642569
 21
571.1105261992117
 31
0.0
  0
ARC
  5
71F
330
17
100
AcDbEntity
  8
SICHTBAR
100
AcDbCircle
 10
1929.037860642569
 20
570.6105261992116
 30
0.0
 40
0.5
100
AcDbArc
 50
0.0
 51
90.0
  0
POLYLINE
  5
720
330
17
100
AcDbEntity
  8
SICHTBAR
100
AcDb2dPolyline
 66
     1
 10
0.0
 20
0.0
 30
0.0
  0
VERTEX
  5
721
330
720
100
AcDbEntity
  8
SICHTBAR
100
AcDbVertex
100
AcDb2dVertex
 10
1927.487860642569
 20
571.1105261992119
 30
0.0
  0
VERTEX
  5
722
330
720
100
AcDbEntity
  8
SICHTBAR
100
AcDbVertex
100
AcDb2dVertex
 10
1927.537860642569
 20
571.1105261992119
 30
0.0
  0
SEQEND
  5
723
330
720
100
AcDbEntity
  8
SICHTBAR
  0
LINE
  5
724
330
17
100
AcDbEntity
  8
SICHTBAR
100
AcDbLine
 10
1929.537860642569
 20
571.1105261992133
 30
0.0
 11
1927.537860642569
 21
571.1105261992116
 31
0.0
  0
LINE
  5
725
330
17
100
AcDbEntity
  8
MITTE
100
AcDbLine
 10
1639.344776311812
 20
804.1105261992122
 30
0.0
 11
1715.634359377164
 21
804.1105261992122
 31
0.0
  0
LINE
  5
726
330
17
100
AcDbEntity
  8
SICHTBAR
100
AcDbLine
 10
1657.913251756506
 20
1047.110526199211
 30
0.0
 11
1628.913251756506
 21
1047.11052619921
 31
0.0
  0
LINE
  5
727
330
17
100
AcDbEntity
  8
VERDECKT
100
AcDbLine
 10
1686.913251756505
 20
1037.04661463089
 30
0.0
 11
1646.529769262082
 21
1034.465642930409
 31
0.0
  0
LINE
  5
728
330
17
100
AcDbEntity
  8
MITTE
100
AcDbLine
 10
1621.904114628357
 20
804.1105261992118
 30
0.0
 11
1698.807210383942
 21
804.1105261992118
 31
0.0
  0
LINE
  5
729
330
17
100
AcDbEntity
  8
SICHTBAR
100
AcDbLine
 10
1686.913251756505
 20
785.1105261992115
 30
0.0
 11
1646.913251756506
 21
785.1105261992115
 31
0.0
  0
LINE
  5
72A
330
17
100
AcDbEntity
  8
SICHTBAR
100
AcDbLine
 10
1686.913251756505
 20
823.1105261992116
 30
0.0
 11
1646.913251756506
 21
823.1105261992116
 31
0.0
  0
LINE
  5
72B
330
17
100
AcDbEntity
  8
VERDECKT
100
AcDbLine
 10
1644.030084095279
 20
790.7619163444617
 30
0.0
 11
1682.796419417731
 21
798.2664595214056
 31
0.0
  0
LINE
  5
72C
330
17
100
AcDbEntity
  8
VERDECKT
100
AcDbLine
 10
1644.030722045421
 20
817.4546214128737
 30
0.0
 11
1682.795781467589
 21
809.9548249040539
 31
0.0
  0
LINE
  5
72D
330
17
100
AcDbEntity
  8
VERDECKT
100
AcDbLine
 10
1690.121959040553
 20
804.1105261992118
 30
0.0
 11
1623.0040025658
 21
804.1105261992118
 31
0.0
  0
LINE
  5
72E
330
17
100
AcDbEntity
  8
VERDECKT
100
AcDbLine
 10
1641.913251756506
 20
1029.480370502901
 30
0.0
 11
1639.913251756505
 21
854.1111859499974
 31
0.0
  0
LINE
  5
72F
330
17
100
AcDbEntity
  8
VERDECKT
100
AcDbLine
 10
1635.076681017938
 20
749.1019437388056
 30
0.0
 11
1628.913251756505
 21
747.6105261992118
 31
0.0
  0
LINE
  5
730
330
17
100
AcDbEntity
  8
VERDECKT
100
AcDbLine
 10
1635.094909464678
 20
854.1286885514823
 30
0.0
 11
1635.094909464678
 21
754.1201060910757
 31
0.0
  0
LINE
  5
731
330
17
100
AcDbEntity
  8
VERDECKT
100
AcDbLine
 10
1639.913251756506
 20
822.3761192853768
 30
0.0
 11
1639.913251756506
 21
785.840532912726
 31
0.0
  0
LINE
  5
732
330
17
100
AcDbEntity
  8
SICHTBAR
100
AcDbLine
 10
1646.913251756506
 20
823.1105261992116
 30
0.0
 11
1646.913251756506
 21
785.1105261992115
 31
0.0
  0
LINE
  5
733
330
17
100
AcDbEntity
  8
VERDECKT
100
AcDbLine
 10
1639.913251756505
 20
785.8405329127263
 30
0.0
 11
1639.913251756505
 21
754.1134979278446
 31
0.0
  0
LINE
  5
734
330
17
100
AcDbEntity
  8
VERDECKT
100
AcDbLine
 10
1639.913251756505
 20
754.1134979278446
 30
0.0
 11
1635.094949038142
 21
754.1310003855791
 31
0.0
  0
LINE
  5
735
330
17
100
AcDbEntity
  8
VERDECKT
100
AcDbLine
 10
1635.094949038142
 20
754.1310003855791
 30
0.0
 11
1635.076681017938
 21
749.1019437388056
 31
0.0
  0
ARC
  5
736
330
17
100
AcDbEntity
  8
VERDECKT
100
AcDbCircle
 10
1644.913251756506
 20
785.840532912726
 30
0.0
 40
5.0
100
AcDbArc
 50
100.1737336228051
 51
180.0
  0
LINE
  5
737
330
17
100
AcDbEntity
  8
VERDECKT
100
AcDbLine
 10
1639.913251756506
 20
790.0231295299967
 30
0.0
 11
1644.030084095279
 21
790.7619163444617
 31
0.0
  0
LINE
  5
738
330
17
100
AcDbEntity
  8
VERDECKT
100
AcDbLine
 10
1639.913251756505
 20
854.1111859499974
 30
0.0
 11
1639.913251756505
 21
822.3761192853769
 31
0.0
  0
ARC
  5
739
330
17
100
AcDbEntity
  8
VERDECKT
100
AcDbCircle
 10
1644.913251756506
 20
822.3761192853768
 30
0.0
 40
5.0
100
AcDbArc
 50
180.0
 51
259.8336934403672
  0
LINE
  5
73A
330
17
100
AcDbEntity
  8
VERDECKT
100
AcDbLine
 10
1639.913251756506
 20
818.1929718010305
 30
0.0
 11
1644.030722045421
 21
817.4546214128737
 31
0.0
  0
LINE
  5
73B
330
17
100
AcDbEntity
  8
VERDECKT
100
AcDbLine
 10
1635.113005962131
 20
859.1105261992122
 30
0.0
 11
1628.913251756505
 21
860.6105261992119
 31
0.0
  0
LINE
  5
73C
330
17
100
AcDbEntity
  8
VERDECKT
100
AcDbLine
 10
1635.113005962131
 20
859.1105261992122
 30
0.0
 11
1635.094909464678
 21
854.1286885514823
 31
0.0
  0
LINE
  5
73D
330
17
100
AcDbEntity
  8
VERDECKT
100
AcDbLine
 10
1639.913251756505
 20
854.1111859499974
 30
0.0
 11
1635.094909464678
 21
854.1286885514823
 31
0.0
  0
ARC
  5
73E
330
17
100
AcDbEntity
  8
VERDECKT
100
AcDbCircle
 10
1646.913251756506
 20
1029.480370502901
 30
0.0
 40
5.0
100
AcDbArc
 50
94.39870535499652
 51
180.0
  0
LINE
  5
73F
330
17
100
AcDbEntity
  8
SICHTBAR
100
AcDbLine
 10
1869.537860642569
 20
860.6105261992116
 30
0.0
 11
1869.537860642569
 21
1047.11052619921
 31
0.0
  0
LINE
  5
740
330
17
100
AcDbEntity
  8
SICHTBAR
100
AcDbLine
 10
1881.719408254042
 20
854.115476716165
 30
0.0
 11
1882.537860642569
 21
1029.4803705029
 31
0.0
  0
INSERT
  5
741
330
17
100
AcDbEntity
  8
SCHRAFF
100
AcDbBlockReference
  2
*X12
 10
2430.832898798121
 20
344.1704007904627
 30
0.0
 41
2.5
 42
2.5
 43
2.5
  0
LINE
  5
742
330
17
100
AcDbEntity
  8
SICHTBAR
100
AcDbLine
 10
1657.913251756505
 20
1047.11052619921
 30
0.0
 11
1657.913251756505
 21
823.1105261992116
 31
0.0
  0
LINE
  5
743
330
17
100
AcDbEntity
  8
SICHTBAR
100
AcDbLine
 10
1661.913251756505
 20
1051.11052619921
 30
0.0
 11
1661.913251756505
 21
823.1105261992116
 31
0.0
  0
TEXT
  5
744
330
17
100
AcDbEntity
  8
TEXT20
100
AcDbText
 10
1668.925753336309
 20
1044.386109157802
 30
0.0
 40
10.0
  1
ACO SELF 100X50  Art.-Nr.0400
 50
270.0
 41
0.8
  7
FUTURA
100
AcDbText
  0
LINE
  5
745
330
17
100
AcDbEntity
  8
MITTE
100
AcDbLine
 10
1852.736866705685
 20
804.1105261992122
 30
0.0
 11
1967.142272696669
 21
804.1105261992118
 31
0.0
  0
ARC
  5
746
330
17
100
AcDbEntity
  8
SICHTBAR
100
AcDbCircle
 10
1886.537860642569
 20
787.1978966804872
 30
0.0
 40
5.0
100
AcDbArc
 50
180.0
 51
262.7594694969571
  0
ARC
  5
747
330
17
100
AcDbEntity
  8
SICHTBAR
100
AcDbCircle
 10
1886.537860642569
 20
787.1978966804872
 30
0.0
 40
5.0
100
AcDbArc
 50
97.24053050304286
 51
180.0
  0
ARC
  5
748
330
17
100
AcDbEntity
  8
SICHTBAR
100
AcDbCircle
 10
1886.537860642569
 20
821.0231557179367
 30
0.0
 40
5.0
100
AcDbArc
 50
97.24053050304286
 51
180.0
  0
ARC
  5
749
330
17
100
AcDbEntity
  8
SICHTBAR
100
AcDbCircle
 10
1886.537860642569
 20
821.0231557179367
 30
0.0
 40
5.0
100
AcDbArc
 50
180.0
 51
262.7594694969571
  0
INSERT
  5
74A
330
17
100
AcDbEntity
  8
SCHRAFF
100
AcDbBlockReference
  2
*X15
 10
2430.832898798121
 20
344.1704007904627
 30
0.0
 41
2.5
 42
2.5
 43
2.5
1001
ACAD
1000
HATCH
1002
{
1070
    16
1000
_U
1040
2.0
1040
0.7853981633974483
1070
     0
1002
}
  0
LINE
  5
74B
330
17
100
AcDbEntity
  8
SICHTBAR
100
AcDbLine
 10
1869.537860642569
 20
860.6105261992116
 30
0.0
 11
1869.537860642569
 21
747.6105261992121
 31
0.0
  0
INSERT
  5
74C
330
17
100
AcDbEntity
  8
SCHRAFF
100
AcDbBlockReference
  2
*X14
 10
2430.832898798121
 20
344.1704007904627
 30
0.0
 41
2.5
 42
2.5
 43
2.5
  0
LINE
  5
74D
330
17
100
AcDbEntity
  8
SICHTBAR
100
AcDbLine
 10
1875.719518350742
 20
749.1061478407677
 30
0.0
 11
1869.537860642569
 21
745.5371660989162
 31
0.0
  0
LINE
  5
74E
330
17
100
AcDbEntity
  8
SICHTBAR
100
AcDbLine
 10
1652.838989888116
 20
823.1105261992116
 30
0.0
 11
1652.838989888116
 21
785.1105261992115
 31
0.0
  0
LINE
  5
74F
330
17
100
AcDbEntity
  8
DUENN
100
AcDbLine
 10
1662.838989888116
 20
818.1105261992122
 30
0.0
 11
1662.838989888116
 21
790.1105261992115
 31
0.0
  0
LINE
  5
750
330
17
100
AcDbEntity
  8
SICHTBAR
100
AcDbLine
 10
1664.088989888116
 20
818.1105261992122
 30
0.0
 11
1664.088989888116
 21
790.1105261992115
 31
0.0
  0
ARC
  5
751
330
17
100
AcDbEntity
  8
VERDECKT
100
AcDbCircle
 10
1681.913251756505
 20
805.0333270315508
 30
0.0
 40
5.0
100
AcDbArc
 50
0.0
 51
79.83369344036723
  0
LINE
  5
752
330
17
100
AcDbEntity
  8
SICHTBAR
100
AcDbLine
 10
1686.913251756505
 20
790.1105261992115
 30
0.0
 11
1662.838989888116
 21
790.1105261992115
 31
0.0
  0
LINE
  5
753
330
17
100
AcDbEntity
  8
SICHTBAR
100
AcDbLine
 10
1686.913251756505
 20
791.6105261992113
 30
0.0
 11
1664.088989888116
 21
791.6105261992113
 31
0.0
  0
LINE
  5
754
330
17
100
AcDbEntity
  8
DUENN
100
AcDbLine
 10
1665.838989888117
 20
790.1105261992115
 30
0.0
 11
1665.838989888117
 21
785.1105261992115
 31
0.0
  0
LINE
  5
755
330
17
100
AcDbEntity
  8
SICHTBAR
100
AcDbLine
 10
1667.088989888117
 20
790.1105261992115
 30
0.0
 11
1667.088989888117
 21
785.1105261992115
 31
0.0
  0
ARC
  5
756
330
17
100
AcDbEntity
  8
VERDECKT
100
AcDbCircle
 10
1681.913251756505
 20
803.1878429531413
 30
0.0
 40
5.0
100
AcDbArc
 50
280.1737336228051
 51
0.0
  0
LINE
  5
757
330
17
100
AcDbEntity
  8
VERDECKT
100
AcDbLine
 10
1686.913251756505
 20
805.0333270315508
 30
0.0
 11
1686.913251756505
 21
803.1878429531413
 31
0.0
  0
LINE
  5
758
330
17
100
AcDbEntity
  8
SICHTBAR
100
AcDbLine
 10
1686.913251756505
 20
818.1105261992122
 30
0.0
 11
1662.838989888116
 21
818.1105261992122
 31
0.0
  0
LINE
  5
759
330
17
100
AcDbEntity
  8
SICHTBAR
100
AcDbLine
 10
1686.913251756505
 20
816.6105261992118
 30
0.0
 11
1664.088989888116
 21
816.6105261992118
 31
0.0
  0
LINE
  5
75A
330
17
100
AcDbEntity
  8
DUENN
100
AcDbLine
 10
1665.838989888117
 20
823.1105261992116
 30
0.0
 11
1665.838989888117
 21
818.1105261992122
 31
0.0
  0
LINE
  5
75B
330
17
100
AcDbEntity
  8
SICHTBAR
100
AcDbLine
 10
1667.088989888117
 20
823.1105261992116
 30
0.0
 11
1667.088989888117
 21
818.1105261992122
 31
0.0
  0
LINE
  5
75C
330
17
100
AcDbEntity
  8
SICHTBAR
100
AcDbLine
 10
1881.538512841649
 20
821.6400931097975
 30
0.0
 11
1881.538512841649
 21
785.7640674689826
 31
0.0
  0
LINE
  5
75D
330
17
100
AcDbEntity
  8
SICHTBAR
100
AcDbLine
 10
1875.719518350742
 20
855.8909665588798
 30
0.0
 11
1875.719518350742
 21
752.3300858395442
 31
0.0
  0
LINE
  5
75E
330
17
100
AcDbEntity
  8
SICHTBAR
100
AcDbLine
 10
1881.537860642569
 20
821.0231557179367
 30
0.0
 11
1881.537860642569
 21
787.1978966804872
 31
0.0
  0
LINE
  5
75F
330
17
100
AcDbEntity
  8
SICHTBAR
100
AcDbLine
 10
1881.537615653103
 20
755.6891658832342
 30
0.0
 11
1881.537860642569
 21
787.1978966804872
 31
0.0
  0
LINE
  5
760
330
17
100
AcDbEntity
  8
SICHTBAR
100
AcDbLine
 10
1881.698758885352
 20
755.7822019717515
 30
0.0
 11
1875.719518350742
 21
752.3300858395442
 31
0.0
  0
LINE
  5
761
330
17
100
AcDbEntity
  8
SICHTBAR
100
AcDbLine
 10
1875.719518350742
 20
752.3300858395442
 30
0.0
 11
1875.719518350742
 21
749.1061478407677
 31
0.0
  0
LINE
  5
762
330
17
100
AcDbEntity
  8
SICHTBAR
100
AcDbLine
 10
1881.719408254042
 20
854.115476716165
 30
0.0
 11
1881.719408254042
 21
821.7208493197087
 31
0.0
  0
INSERT
  5
763
330
17
100
AcDbEntity
  8
SCHRAFF
100
AcDbBlockReference
  2
*X13
 10
2430.832898798121
 20
344.1704007904627
 30
0.0
 41
2.5
 42
2.5
 43
2.5
  0
LINE
  5
764
330
17
100
AcDbEntity
  8
SICHTBAR
100
AcDbLine
 10
1881.719408254042
 20
852.4269285081011
 30
0.0
 11
1875.719518350742
 21
855.8909665588798
 31
0.0
  0
LINE
  5
765
330
17
100
AcDbEntity
  8
SICHTBAR
100
AcDbLine
 10
1875.719518350742
 20
859.1149045576564
 30
0.0
 11
1875.719518350742
 21
855.8909665588798
 31
0.0
  0
LINE
  5
766
330
17
100
AcDbEntity
  8
SICHTBAR
100
AcDbLine
 10
1875.719518350742
 20
859.1149045576564
 30
0.0
 11
1869.537860642569
 21
862.6838862995079
 31
0.0
  0
ARC
  5
767
330
17
100
AcDbEntity
  8
SICHTBAR
100
AcDbCircle
 10
1924.537860642569
 20
806.1105261992119
 30
0.0
 40
5.0
100
AcDbArc
 50
0.0
 51
82.38717931757621
  0
LINE
  5
768
330
17
100
AcDbEntity
  8
SICHTBAR
100
AcDbLine
 10
1885.90768556814
 20
782.2377677128525
 30
0.0
 11
1925.200251564703
 21
777.2457209610586
 31
0.0
  0
LINE
  5
769
330
17
100
AcDbEntity
  8
SICHTBAR
100
AcDbLine
 10
1925.200251564703
 20
797.1545965925413
 30
0.0
 11
1885.90768556814
 21
792.1580256481218
 31
0.0
  0
ARC
  5
76A
330
17
100
AcDbEntity
  8
SICHTBAR
100
AcDbCircle
 10
1924.537860642569
 20
772.2852671617622
 30
0.0
 40
5.0
100
AcDbArc
 50
0.0
 51
82.38717931757621
  0
LINE
  5
76B
330
17
100
AcDbEntity
  8
SICHTBAR
100
AcDbLine
 10
1929.537860642569
 20
801.7427841600072
 30
0.0
 11
1929.537860642569
 21
806.4782682384169
 31
0.0
  0
LINE
  5
76C
330
17
100
AcDbEntity
  8
SICHTBAR
100
AcDbLine
 10
1929.537860642569
 20
806.1105261992119
 30
0.0
 11
1929.537860642569
 21
802.110526199212
 31
0.0
  0
ARC
  5
76D
330
17
100
AcDbEntity
  8
SICHTBAR
100
AcDbCircle
 10
1924.537860642569
 20
802.110526199212
 30
0.0
 40
5.0
100
AcDbArc
 50
277.6128206824238
 51
0.0
  0
LINE
  5
76E
330
17
100
AcDbEntity
  8
SICHTBAR
100
AcDbLine
 10
1929.537860642569
 20
805.1105261992121
 30
0.0
 11
1929.537860642569
 21
803.110526199212
 31
0.0
  0
POINT
  5
76F
330
17
100
AcDbEntity
  8
DEFPOINTS
  6
ByBlock
 62
     0
100
AcDbPoint
 10
1929.537860642569
 20
794.3193176774916
 30
0.0
  0
LINE
  5
770
330
17
100
AcDbEntity
  8
SICHTBAR
100
AcDbLine
 10
1929.537860642569
 20
801.7246222717727
 30
0.0
 11
1929.537860642569
 21
806.4601063501827
 31
0.0
  0
LINE
  5
771
330
17
100
AcDbEntity
  8
SICHTBAR
100
AcDbLine
 10
1885.90768556814
 20
825.9832846855717
 30
0.0
 11
1925.200251564703
 21
830.9753314373654
 31
0.0
  0
LINE
  5
772
330
17
100
AcDbEntity
  8
SICHTBAR
100
AcDbLine
 10
1885.90768556814
 20
816.0630267503021
 30
0.0
 11
1925.200817224442
 21
811.0709081325001
 31
0.0
  0
ARC
  5
773
330
17
100
AcDbEntity
  8
SICHTBAR
100
AcDbCircle
 10
1924.537860642569
 20
835.9357852366617
 30
0.0
 40
5.0
100
AcDbArc
 50
277.6128206824238
 51
0.0
  0
LINE
  5
774
330
17
100
AcDbEntity
  8
SICHTBAR
100
AcDbLine
 10
1937.655502179142
 20
861.0405177890193
 30
0.0
 11
1937.654811574885
 21
860.8503462022529
 31
0.0
  0
LINE
  5
775
330
17
100
AcDbEntity
  8
SICHTBAR
100
AcDbLine
 10
1898.537860642569
 20
1047.11052619921
 30
0.0
 11
1869.537860642569
 21
1047.11052619921
 31
0.0
  0
ARC
  5
776
330
17
100
AcDbEntity
  8
SICHTBAR
100
AcDbCircle
 10
1887.537860642569
 20
1029.4803705029
 30
0.0
 40
5.0
100
AcDbArc
 50
94.39870535499652
 51
180.0
  0
LINE
  5
777
330
17
100
AcDbEntity
  8
DUENN
100
AcDbLine
 10
1887.154378148145
 20
1034.465642930408
 30
0.0
 11
1882.537860642569
 21
1034.11052619921
 31
0.0
  0
LINE
  5
778
330
17
100
AcDbEntity
  8
SICHTBAR
100
AcDbLine
 10
1686.913251756505
 20
1054.11052619921
 30
0.0
 11
1708.913251756505
 21
1054.11052619921
 31
0.0
  0
LINE
  5
779
330
17
100
AcDbEntity
  8
VERDECKT
100
AcDbLine
 10
1708.413251756505
 20
1052.110526199211
 30
0.0
 11
1689.413251756505
 21
1052.110526199211
 31
0.0
  0
LINE
  5
77A
330
17
100
AcDbEntity
  8
SICHTBAR
100
AcDbLine
 10
1686.913251756505
 20
1051.11052619921
 30
0.0
 11
1661.913251756505
 21
1051.11052619921
 31
0.0
  0
LINE
  5
77B
330
17
100
AcDbEntity
  8
SICHTBAR
100
AcDbLine
 10
1661.913251756505
 20
1051.11052619921
 30
0.0
 11
1657.913251756505
 21
1047.11052619921
 31
0.0
  0
ARC
  5
77C
330
17
100
AcDbEntity
  8
VERDECKT
100
AcDbCircle
 10
1688.413251756505
 20
1037.610526199211
 30
0.0
 40
0.5
100
AcDbArc
 50
270.0
 51
0.0
  0
ARC
  5
77D
330
17
100
AcDbEntity
  8
VERDECKT
100
AcDbCircle
 10
1689.413251756505
 20
1051.610526199211
 30
0.0
 40
0.5
100
AcDbArc
 50
90.0
 51
180.0
  0
LINE
  5
77E
330
17
100
AcDbEntity
  8
VERDECKT
100
AcDbLine
 10
1686.913251756505
 20
1054.11052619921
 30
0.0
 11
1686.913251756505
 21
1037.04661463089
 31
0.0
  0
LINE
  5
77F
330
17
100
AcDbEntity
  8
VERDECKT
100
AcDbLine
 10
1688.413251756505
 20
1037.110526199211
 30
0.0
 11
1687.913251756506
 21
1037.110526199211
 31
0.0
  0
LINE
  5
780
330
17
100
AcDbEntity
  8
VERDECKT
100
AcDbLine
 10
1688.913251756505
 20
1051.610526199211
 30
0.0
 11
1688.913251756505
 21
1037.610526199211
 31
0.0
  0
LINE
  5
781
330
17
100
AcDbEntity
  8
VERDECKT
100
AcDbLine
 10
1688.913251756505
 20
1054.11052619921
 30
0.0
 11
1686.913251756505
 21
1054.11052619921
 31
0.0
  0
LINE
  5
782
330
17
100
AcDbEntity
  8
VERDECKT
100
AcDbLine
 10
1687.913251756506
 20
1037.110526199211
 30
0.0
 11
1686.913251756505
 21
1037.04661463089
 31
0.0
  0
LINE
  5
783
330
17
100
AcDbEntity
  8
DUENN
100
AcDbLine
 10
1882.537860642569
 20
1034.11052619921
 30
0.0
 11
1882.537860642569
 21
1029.4803705029
 31
0.0
  0
LINE
  5
784
330
17
100
AcDbEntity
  8
SICHTBAR
100
AcDbLine
 10
1927.537860642569
 20
1037.046614630889
 30
0.0
 11
1887.154378148145
 21
1034.465642930408
 31
0.0
  0
LINE
  5
785
330
17
100
AcDbEntity
  8
SICHTBAR
100
AcDbLine
 10
1928.337860642569
 20
1051.11052619921
 30
0.0
 11
1902.537860642569
 21
1051.11052619921
 31
0.0
  0
LINE
  5
786
330
17
100
AcDbEntity
  8
SICHTBAR
100
AcDbLine
 10
1898.537860642569
 20
1047.11052619921
 30
0.0
 11
1902.537860642569
 21
1051.11052619921
 31
0.0
  0
LINE
  5
787
330
17
100
AcDbEntity
  8
SICHTBAR
100
AcDbLine
 10
1929.837860642569
 20
1054.11052619921
 30
0.0
 11
1949.537860642569
 21
1054.11052619921
 31
0.0
  0
INSERT
  5
788
330
17
100
AcDbEntity
  8
SCHRAFF
100
AcDbBlockReference
  2
*X8
 10
1601.408844204621
 20
890.120306534256
 30
0.0
 50
270.0
  0
LINE
  5
789
330
17
100
AcDbEntity
  8
SICHTBAR
100
AcDbLine
 10
1937.537860642569
 20
1052.86052619921
 30
0.0
 11
1948.29002584598
 21
1052.86052619921
 31
0.0
  0
LINE
  5
78A
330
17
100
AcDbEntity
  8
SICHTBAR
100
AcDbLine
 10
1948.287860642569
 20
1051.61052619921
 30
0.0
 11
1937.537860642569
 21
1051.61052619921
 31
0.0
  0
LINE
  5
78B
330
17
100
AcDbEntity
  8
SICHTBAR
100
AcDbLine
 10
1929.837860642569
 20
1054.11052619921
 30
0.0
 11
1948.287860642569
 21
1054.11052619921
 31
0.0
  0
LINE
  5
78C
330
17
100
AcDbEntity
  8
SICHTBAR
100
AcDbLine
 10
1929.537860642569
 20
1037.110526199209
 30
0.0
 11
1927.537860642569
 21
1037.110526199211
 31
0.0
  0
POLYLINE
  5
78D
330
17
100
AcDbEntity
  8
SICHTBAR
100
AcDb2dPolyline
 66
     1
 10
0.0
 20
0.0
 30
0.0
  0
VERTEX
  5
78E
330
78D
100
AcDbEntity
  8
SICHTBAR
100
AcDbVertex
100
AcDb2dVertex
 10
1927.487860642569
 20
1037.11052619921
 30
0.0
  0
VERTEX
  5
78F
330
78D
100
AcDbEntity
  8
SICHTBAR
100
AcDbVertex
100
AcDb2dVertex
 10
1927.537860642569
 20
1037.11052619921
 30
0.0
  0
SEQEND
  5
790
330
78D
100
AcDbEntity
  8
SICHTBAR
  0
ARC
  5
791
330
17
100
AcDbEntity
  8
SICHTBAR
100
AcDbCircle
 10
1929.037860642569
 20
1037.610526199211
 30
0.0
 40
0.5
100
AcDbArc
 50
270.0
 51
0.0
  0
LINE
  5
792
330
17
100
AcDbEntity
  8
SICHTBAR
100
AcDbLine
 10
1929.037860642569
 20
1037.11052619921
 30
0.0
 11
1928.537860642569
 21
1037.11052619921
 31
0.0
  0
LINE
  5
793
330
17
100
AcDbEntity
  8
SICHTBAR
100
AcDbLine
 10
1928.537860642569
 20
1037.11052619921
 30
0.0
 11
1927.537860642569
 21
1037.04661463089
 31
0.0
  0
LINE
  5
794
330
17
100
AcDbEntity
  8
SICHTBAR
100
AcDbLine
 10
1937.537860642569
 20
1052.86052619921
 30
0.0
 11
1930.237860642569
 21
1052.86052619921
 31
0.0
  0
LINE
  5
795
330
17
100
AcDbEntity
  8
SICHTBAR
100
AcDbLine
 10
1937.537860642569
 20
1051.61052619921
 30
0.0
 11
1937.537860642569
 21
1052.86052619921
 31
0.0
  0
LINE
  5
796
330
17
100
AcDbEntity
  8
SICHTBAR
100
AcDbLine
 10
1928.337860642569
 20
1052.61052619921
 30
0.0
 11
1928.337860642569
 21
1049.61052619921
 31
0.0
  0
LINE
  5
797
330
17
100
AcDbEntity
  8
SICHTBAR
100
AcDbLine
 10
1929.537860642569
 20
1052.16052619921
 30
0.0
 11
1929.537860642569
 21
1037.61052619921
 31
0.0
  0
ARC
  5
798
330
17
100
AcDbEntity
  8
SICHTBAR
100
AcDbCircle
 10
1929.837860642569
 20
1052.61052619921
 30
0.0
 40
1.5
100
AcDbArc
 50
90.0
 51
180.0
  0
ARC
  5
799
330
17
100
AcDbEntity
  8
SICHTBAR
100
AcDbCircle
 10
1930.237860642569
 20
1052.16052619921
 30
0.0
 40
0.7
100
AcDbArc
 50
90.0
 51
180.0
  0
LINE
  5
79A
330
17
100
AcDbEntity
  8
SICHTBAR
100
AcDbLine
 10
1928.337860642569
 20
1037.61052619921
 30
0.0
 11
1929.537860642569
 21
1037.61052619921
 31
0.0
  0
LINE
  5
79B
330
17
100
AcDbEntity
  8
SICHTBAR
100
AcDbLine
 10
1928.337860642569
 20
1049.61052619921
 30
0.0
 11
1928.337860642569
 21
1037.61052619921
 31
0.0
  0
POINT
  5
79C
330
17
100
AcDbEntity
  8
RED
  6
ByBlock
 62
     1
100
AcDbPoint
 10
1949.537860642569
 20
1055.36052619921
 30
0.0
  0
POINT
  5
79D
330
17
100
AcDbEntity
  8
RED
  6
ByBlock
 62
     1
100
AcDbPoint
 10
1948.020627029769
 20
1054.11052619921
 30
0.0
  0
LINE
  5
79E
330
17
100
AcDbEntity
  8
SICHTBAR
100
AcDbLine
 10
1949.537860642569
 20
1052.86052619921
 30
0.0
 11
1949.537860642569
 21
1052.11052619921
 31
0.0
  0
LINE
  5
79F
330
17
100
AcDbEntity
  8
DUENN
100
AcDbLine
 10
1949.572512810167
 20
1054.11052619921
 30
0.0
 11
1948.322512810167
 21
1054.11052619921
 31
0.0
  0
POINT
  5
7A0
330
17
100
AcDbEntity
  8
RED
  6
ByBlock
 62
     1
100
AcDbPoint
 10
1949.572512810167
 20
1052.86052619921
 30
0.0
  0
ARC
  5
7A1
330
17
100
AcDbEntity
  8
SICHTBAR
100
AcDbCircle
 10
1948.537860642568
 20
1053.11052619921
 30
0.0
 40
1.000000000000007
100
AcDbArc
 50
90.0
 51
90.0
  0
ARC
  5
7A2
330
17
100
AcDbEntity
  8
SICHTBAR
100
AcDbCircle
 10
1948.287860642569
 20
1052.86052619921
 30
0.0
 40
1.25
100
AcDbArc
 50
270.0
 51
90.0
  0
LINE
  5
7A3
330
17
100
AcDbEntity
  8
DUENN
100
AcDbLine
 10
1949.537860642569
 20
1052.86052619921
 30
0.0
 11
1949.537860642569
 21
1054.11052619921
 31
0.0
  0
LINE
  5
7A4
330
17
100
AcDbEntity
  8
DUENN
100
AcDbLine
 10
1948.287860642569
 20
1054.11052619921
 30
0.0
 11
1949.537860642569
 21
1054.11052619921
 31
0.0
  0
LINE
  5
7A5
330
17
100
AcDbEntity
  8
TEXT50
100
AcDbLine
 10
1869.400565315855
 20
1098.632367735882
 30
0.0
 11
1952.67003671914
 21
1098.632367735882
 31
0.0
  0
TEXT
  5
7A6
330
17
100
AcDbEntity
  8
TEXT50
100
AcDbText
 10
1870.397406553723
 20
1101.338192019028
 30
0.0
 40
12.5
  1
Schnitt C-C
 41
0.8
  7
TEXT50
100
AcDbText
  0
LINE
  5
7A7
330
17
100
AcDbEntity
  8
DUENN
100
AcDbLine
 10
1395.281632374288
 20
1037.110526199211
 30
0.0
 11
1122.634460916161
 21
1037.110526199211
 31
0.0
  0
LINE
  5
7A8
330
17
100
AcDbEntity
  8
SICHTBAR
100
AcDbLine
 10
1415.281632374288
 20
566.610526199212
 30
0.0
 11
440.3066323742877
 21
566.6105261992119
 31
0.0
  0
LINE
  5
7A9
330
17
100
AcDbEntity
  8
SICHTBAR
100
AcDbLine
 10
440.3066323742923
 20
566.6105261992119
 30
0.0
 11
1415.281632374288
 21
566.610526199212
 31
0.0
  0
LINE
  5
7AA
330
17
100
AcDbEntity
  8
SICHTBAR
100
AcDbLine
 10
1415.281632374288
 20
1041.610526199211
 30
0.0
 11
783.6316323742887
 21
1041.610526199211
 31
0.0
  0
LINE
  5
7AB
330
17
100
AcDbEntity
  8
DUENN
100
AcDbLine
 10
459.8066323742886
 20
790.9326976573395
 30
0.0
 11
1395.781632374288
 21
790.9326976573329
 31
0.0
  0
LINE
  5
7AC
330
17
100
AcDbEntity
  8
DUENN
100
AcDbLine
 10
459.8066323742886
 20
817.2883547410846
 30
0.0
 11
1395.781632374288
 21
817.2883547410908
 31
0.0
  0
LINE
  5
7AD
330
17
100
AcDbEntity
  8
SICHTBAR
100
AcDbLine
 10
440.3066323742883
 20
806.6105261992118
 30
0.0
 11
1415.281632374288
 21
806.6105261992118
 31
0.0
  0
LINE
  5
7AE
330
17
100
AcDbEntity
  8
SICHTBAR
100
AcDbLine
 10
440.3066323742887
 20
801.6105261992121
 30
0.0
 11
1415.281632374288
 21
801.6105261992111
 31
0.0
  0
POLYLINE
  5
7AF
330
17
100
AcDbEntity
  8
DUENN
100
AcDb2dPolyline
 66
     1
 10
0.0
 20
0.0
 30
0.0
  0
VERTEX
  5
7B0
330
7AF
100
AcDbEntity
  8
DUENN
100
AcDbVertex
100
AcDb2dVertex
 10
1395.281632374288
 20
571.110526199212
 30
0.0
  0
VERTEX
  5
7B1
330
7AF
100
AcDbEntity
  8
DUENN
100
AcDbVertex
100
AcDb2dVertex
 10
1122.634460916161
 20
571.1105261992119
 30
0.0
  0
SEQEND
  5
7B2
330
7AF
100
AcDbEntity
  8
DUENN
  0
POLYLINE
  5
7B3
330
17
100
AcDbEntity
  8
SICHTBAR
100
AcDb2dPolyline
 66
     1
 10
0.0
 20
0.0
 30
0.0
  0
VERTEX
  5
7B4
330
7B3
100
AcDbEntity
  8
SICHTBAR
100
AcDbVertex
100
AcDb2dVertex
 10
1425.781632374289
 20
1052.110526199211
 30
0.0
  0
VERTEX
  5
7B5
330
7B3
100
AcDbEntity
  8
SICHTBAR
100
AcDbVertex
100
AcDb2dVertex
 10
429.8066323742887
 20
1052.110526199211
 30
0.0
  0
SEQEND
  5
7B6
330
7B3
100
AcDbEntity
  8
SICHTBAR
  0
POLYLINE
  5
7B7
330
17
100
AcDbEntity
  8
SICHTBAR
100
AcDb2dPolyline
 66
     1
 10
0.0
 20
0.0
 30
0.0
  0
VERTEX
  5
7B8
330
7B7
100
AcDbEntity
  8
SICHTBAR
100
AcDbVertex
100
AcDb2dVertex
 10
1427.781632374289
 20
1054.110526199211
 30
0.0
  0
VERTEX
  5
7B9
330
7B7
100
AcDbEntity
  8
SICHTBAR
100
AcDbVertex
100
AcDb2dVertex
 10
427.8066323742887
 20
1054.110526199211
 30
0.0
  0
SEQEND
  5
7BA
330
7B7
100
AcDbEntity
  8
SICHTBAR
  0
POLYLINE
  5
7BB
330
17
100
AcDbEntity
  8
SICHTBAR
100
AcDb2dPolyline
 66
     1
 10
0.0
 20
0.0
 30
0.0
  0
VERTEX
  5
7BC
330
7BB
100
AcDbEntity
  8
SICHTBAR
100
AcDbVertex
100
AcDb2dVertex
 10
427.8066323742877
 20
554.110526199212
 30
0.0
  0
VERTEX
  5
7BD
330
7BB
100
AcDbEntity
  8
SICHTBAR
100
AcDbVertex
100
AcDb2dVertex
 10
1427.781632374288
 20
554.110526199212
 30
0.0
  0
VERTEX
  5
7BE
330
7BB
100
AcDbEntity
  8
SICHTBAR
100
AcDbVertex
100
AcDb2dVertex
 10
1427.781632374288
 20
1054.110526199211
 30
0.0
  0
SEQEND
  5
7BF
330
7BB
100
AcDbEntity
  8
SICHTBAR
  0
POLYLINE
  5
7C0
330
17
100
AcDbEntity
  8
SICHTBAR
100
AcDb2dPolyline
 66
     1
 10
0.0
 20
0.0
 30
0.0
  0
VERTEX
  5
7C1
330
7C0
100
AcDbEntity
  8
SICHTBAR
100
AcDbVertex
100
AcDb2dVertex
 10
429.8066323742878
 20
556.1105261992119
 30
0.0
  0
VERTEX
  5
7C2
330
7C0
100
AcDbEntity
  8
SICHTBAR
100
AcDbVertex
100
AcDb2dVertex
 10
1425.781632374287
 20
556.1105261992119
 30
0.0
  0
VERTEX
  5
7C3
330
7C0
100
AcDbEntity
  8
SICHTBAR
100
AcDbVertex
100
AcDb2dVertex
 10
1425.781632374288
 20
1052.110526199211
 30
0.0
  0
SEQEND
  5
7C4
330
7C0
100
AcDbEntity
  8
SICHTBAR
  0
LINE
  5
7C5
330
17
100
AcDbEntity
  8
MITTE
100
AcDbLine
 10
440.3066323742883
 20
804.1105261992118
 30
0.0
 11
1415.281632374288
 21
804.1105261992118
 31
0.0
  0
POLYLINE
  5
7C6
330
17
100
AcDbEntity
  8
DUENN
100
AcDb2dPolyline
 66
     1
 10
0.0
 20
0.0
 30
0.0
  0
VERTEX
  5
7C7
330
7C6
100
AcDbEntity
  8
DUENN
100
AcDbVertex
100
AcDb2dVertex
 10
732.9538038324149
 20
571.1105261992119
 30
0.0
  0
VERTEX
  5
7C8
330
7C6
100
AcDbEntity
  8
DUENN
100
AcDbVertex
100
AcDb2dVertex
 10
460.3066323742877
 20
571.1105261992119
 30
0.0
  0
SEQEND
  5
7C9
330
7C6
100
AcDbEntity
  8
DUENN
  0
POLYLINE
  5
7CA
330
17
100
AcDbEntity
  8
DUENN
100
AcDb2dPolyline
 66
     1
 10
0.0
 20
0.0
 30
0.0
  0
VERTEX
  5
7CB
330
7CA
100
AcDbEntity
  8
DUENN
100
AcDbVertex
100
AcDb2dVertex
 10
460.3066323742877
 20
571.1105261992119
 30
0.0
  0
VERTEX
  5
7CC
330
7CA
100
AcDbEntity
  8
DUENN
100
AcDbVertex
100
AcDb2dVertex
 10
732.9538038324149
 20
571.1105261992119
 30
0.0
  0
SEQEND
  5
7CD
330
7CA
100
AcDbEntity
  8
DUENN
  0
LINE
  5
7CE
330
17
100
AcDbEntity
  8
DUENN
100
AcDbLine
 10
732.953803832416
 20
1037.110526199211
 30
0.0
 11
460.3066323742882
 21
1037.110526199211
 31
0.0
  0
LINE
  5
7CF
330
17
100
AcDbEntity
  8
SICHTBAR
100
AcDbLine
 10
727.953803832416
 20
1041.610526199211
 30
0.0
 11
440.3066323742883
 21
1041.610526199212
 31
0.0
  0
LINE
  5
7D0
330
17
100
AcDbEntity
  8
SICHTBAR
100
AcDbLine
 10
440.3066323742887
 20
801.6105261992121
 30
0.0
 11
440.3066323742923
 21
566.6105261992119
 31
0.0
  0
POLYLINE
  5
7D1
330
17
100
AcDbEntity
  8
DUENN
100
AcDb2dPolyline
 66
     1
 10
0.0
 20
0.0
 30
0.0
  0
VERTEX
  5
7D2
330
7D1
100
AcDbEntity
  8
DUENN
100
AcDbVertex
100
AcDb2dVertex
 10
444.8066323742883
 20
775.9326976573391
 30
0.0
  0
VERTEX
  5
7D3
330
7D1
100
AcDbEntity
  8
DUENN
100
AcDbVertex
100
AcDb2dVertex
 10
444.8066323742883
 20
586.6105261992118
 30
0.0
  0
SEQEND
  5
7D4
330
7D1
100
AcDbEntity
  8
DUENN
  0
POLYLINE
  5
7D5
330
17
100
AcDbEntity
  8
SICHTBAR
100
AcDb2dPolyline
 66
     1
 10
0.0
 20
0.0
 30
0.0
  0
VERTEX
  5
7D6
330
7D5
100
AcDbEntity
  8
SICHTBAR
100
AcDbVertex
100
AcDb2dVertex
 10
429.8066323742882
 20
1052.110526199211
 30
0.0
  0
VERTEX
  5
7D7
330
7D5
100
AcDbEntity
  8
SICHTBAR
100
AcDbVertex
100
AcDb2dVertex
 10
429.8066323742887
 20
556.1105261992119
 30
0.0
  0
SEQEND
  5
7D8
330
7D5
100
AcDbEntity
  8
SICHTBAR
  0
POLYLINE
  5
7D9
330
17
100
AcDbEntity
  8
SICHTBAR
100
AcDb2dPolyline
 66
     1
 10
0.0
 20
0.0
 30
0.0
  0
VERTEX
  5
7DA
330
7D9
100
AcDbEntity
  8
SICHTBAR
100
AcDbVertex
100
AcDb2dVertex
 10
427.8066323742883
 20
1054.110526199211
 30
0.0
  0
VERTEX
  5
7DB
330
7D9
100
AcDbEntity
  8
SICHTBAR
100
AcDbVertex
100
AcDb2dVertex
 10
427.8066323742887
 20
554.110526199212
 30
0.0
  0
SEQEND
  5
7DC
330
7D9
100
AcDbEntity
  8
SICHTBAR
  0
LINE
  5
7DD
330
17
100
AcDbEntity
  8
SICHTBAR
100
AcDbLine
 10
429.8066323742878
 20
556.1105261992119
 30
0.0
 11
440.3066323742877
 21
566.6105261992119
 31
0.0
  0
ARC
  5
7DE
330
17
100
AcDbEntity
  8
SICHTBAR
100
AcDbCircle
 10
460.3066323742877
 20
586.6105261992118
 30
0.0
 40
20.0
100
AcDbArc
 50
180.0
 51
270.0
  0
ARC
  5
7DF
330
17
100
AcDbEntity
  8
DUENN
100
AcDbCircle
 10
460.3066323742877
 20
586.6105261992118
 30
0.0
 40
15.50000000000011
100
AcDbArc
 50
180.0
 51
270.0
  0
LINE
  5
7E0
330
17
100
AcDbEntity
  8
SICHTBAR
100
AcDbLine
 10
440.3066323742883
 20
1041.610526199212
 30
0.0
 11
440.3066323742883
 21
806.6105261992118
 31
0.0
  0
POLYLINE
  5
7E1
330
17
100
AcDbEntity
  8
DUENN
100
AcDb2dPolyline
 66
     1
 10
0.0
 20
0.0
 30
0.0
  0
VERTEX
  5
7E2
330
7E1
100
AcDbEntity
  8
DUENN
100
AcDbVertex
100
AcDb2dVertex
 10
444.8066323742883
 20
1021.610526199212
 30
0.0
  0
VERTEX
  5
7E3
330
7E1
100
AcDbEntity
  8
DUENN
100
AcDbVertex
100
AcDb2dVertex
 10
444.8066323742883
 20
832.2883547410846
 30
0.0
  0
SEQEND
  5
7E4
330
7E1
100
AcDbEntity
  8
DUENN
  0
ARC
  5
7E5
330
17
100
AcDbEntity
  8
DUENN
100
AcDbCircle
 10
459.8066323742886
 20
775.9326976573391
 30
0.0
 40
15.0
100
AcDbArc
 50
90.0
 51
180.0
  0
LINE
  5
7E6
330
17
100
AcDbEntity
  8
SICHTBAR
100
AcDbLine
 10
440.3066323742883
 20
806.6105261992118
 30
0.0
 11
440.3066323742883
 21
801.6105261992121
 31
0.0
  0
ARC
  5
7E7
330
17
100
AcDbEntity
  8
DUENN
100
AcDbCircle
 10
459.8066323742886
 20
832.2883547410846
 30
0.0
 40
15.0
100
AcDbArc
 50
180.0
 51
270.0
  0
ARC
  5
7E8
330
17
100
AcDbEntity
  8
DUENN
100
AcDbCircle
 10
460.3066323742882
 20
1021.610526199212
 30
0.0
 40
15.50000000000011
100
AcDbArc
 50
90.0
 51
180.0
  0
ARC
  5
7E9
330
17
100
AcDbEntity
  8
SICHTBAR
100
AcDbCircle
 10
460.3066323742882
 20
1021.610526199212
 30
0.0
 40
20.0
100
AcDbArc
 50
90.0
 51
180.0
  0
LINE
  5
7EA
330
17
100
AcDbEntity
  8
SICHTBAR
100
AcDbLine
 10
429.8066323742887
 20
1052.110526199212
 30
0.0
 11
440.3066323742883
 21
1041.610526199212
 31
0.0
  0
LINE
  5
7EB
330
17
100
AcDbEntity
  8
DUENN
100
AcDbLine
 10
774.309460916163
 20
782.2105261992119
 30
0.0
 11
774.3094609161644
 21
586.1105261992118
 31
0.0
  0
LINE
  5
7EC
330
17
100
AcDbEntity
  8
DUENN
100
AcDbLine
 10
747.9538038324144
 20
782.2105261992119
 30
0.0
 11
747.9538038324126
 21
586.1105261992118
 31
0.0
  0
LINE
  5
7ED
330
17
100
AcDbEntity
  8
SICHTBAR
100
AcDbLine
 10
763.6316323742887
 20
779.610526199212
 30
0.0
 11
763.6316323742887
 21
586.6105261992118
 31
0.0
  0
LINE
  5
7EE
330
17
100
AcDbEntity
  8
SICHTBAR
100
AcDbLine
 10
758.631632374288
 20
779.610526199212
 30
0.0
 11
758.631632374288
 21
586.6105261992118
 31
0.0
  0
LINE
  5
7EF
330
17
100
AcDbEntity
  8
MITTE
100
AcDbLine
 10
761.1316323742888
 20
1080.244686602922
 30
0.0
 11
761.1316323742888
 21
531.2113420093978
 31
0.0
  0
LINE
  5
7F0
330
17
100
AcDbEntity
  8
MITTE
100
AcDbLine
 10
927.7941323742886
 20
1080.244686602922
 30
0.0
 11
927.7941323742886
 21
543.6264909279111
 31
0.0
  0
LINE
  5
7F1
330
17
100
AcDbEntity
  8
MITTE
100
AcDbLine
 10
1094.456632374289
 20
1080.244686602922
 30
0.0
 11
1094.456632374289
 21
531.2113420093978
 31
0.0
  0
LINE
  5
7F2
330
17
100
AcDbEntity
  8
SICHTBAR
100
AcDbLine
 10
1096.956632374289
 20
779.610526199212
 30
0.0
 11
1096.956632374289
 21
586.6105261992118
 31
0.0
  0
LINE
  5
7F3
330
17
100
AcDbEntity
  8
SICHTBAR
100
AcDbLine
 10
1091.956632374288
 20
779.610526199212
 30
0.0
 11
1091.956632374288
 21
586.6105261992118
 31
0.0
  0
LINE
  5
7F4
330
17
100
AcDbEntity
  8
DUENN
100
AcDbLine
 10
1107.634460916163
 20
782.2105261992119
 30
0.0
 11
1107.634460916165
 21
586.1105261992118
 31
0.0
  0
LINE
  5
7F5
330
17
100
AcDbEntity
  8
DUENN
100
AcDbLine
 10
1081.278803832414
 20
782.2105261992119
 30
0.0
 11
1081.278803832413
 21
586.1105261992118
 31
0.0
  0
POLYLINE
  5
7F6
330
17
100
AcDbEntity
  8
DUENN
100
AcDb2dPolyline
 66
     1
 10
0.0
 20
0.0
 30
0.0
  0
VERTEX
  5
7F7
330
7F6
100
AcDbEntity
  8
DUENN
100
AcDbVertex
100
AcDb2dVertex
 10
1066.278803832416
 20
571.1105261992119
 30
0.0
  0
VERTEX
  5
7F8
330
7F6
100
AcDbEntity
  8
DUENN
100
AcDbVertex
100
AcDb2dVertex
 10
789.3094609161607
 20
571.1105261992119
 30
0.0
  0
SEQEND
  5
7F9
330
7F6
100
AcDbEntity
  8
DUENN
  0
ARC
  5
7FA
330
17
100
AcDbEntity
  8
SICHTBAR
100
AcDbCircle
 10
738.6316323742875
 20
586.6105261992118
 30
0.0
 40
20.0
100
AcDbArc
 50
270.0
 51
0.0
  0
ARC
  5
7FB
330
17
100
AcDbEntity
  8
DUENN
100
AcDbCircle
 10
732.9538038324149
 20
586.1105261992118
 30
0.0
 40
15.0
100
AcDbArc
 50
270.0
 51
0.0
  0
ARC
  5
7FC
330
17
100
AcDbEntity
  8
SICHTBAR
100
AcDbCircle
 10
783.6316323742876
 20
586.6105261992118
 30
0.0
 40
20.0
100
AcDbArc
 50
180.0
 51
270.0
  0
ARC
  5
7FD
330
17
100
AcDbEntity
  8
DUENN
100
AcDbCircle
 10
789.3094609161607
 20
586.1105261992118
 30
0.0
 40
15.0
100
AcDbArc
 50
180.0
 51
270.0
  0
INSERT
  5
7FE
330
17
100
AcDbEntity
  8
BEMASS
100
AcDbBlockReference
 66
     1
  2
SCHNITT
 10
927.9744783416955
 20
531.4982742746135
 30
0.0
 41
2.5
 42
2.5
 43
2.5
  0
ATTRIB
  5
7FF
330
7FE
100
AcDbEntity
  8
TEXT50
100
AcDbText
 10
933.3280839364052
 20
525.245562371783
 30
0.0
 40
12.5
  1
C
 41
0.8
  7
TEXT50
100
AcDbAttribute
  2
SCHNITTB
 70
     0
  0
ATTRIB
  5
800
330
7FE
100
AcDbEntity
  8
PN
100
AcDbText
 10
927.9744783416955
 20
531.4982742746135
 30
0.0
 40
12.5
  1
PN000000
 41
0.8
  7
TEXT50
100
AcDbAttribute
  2
PN
 70
     1
  0
SEQEND
  5
801
330
7FE
100
AcDbEntity
  8
BEMASS
  0
ARC
  5
802
330
17
100
AcDbEntity
  8
DUENN
100
AcDbCircle
 10
1066.278803832416
 20
586.1105261992118
 30
0.0
 40
15.0
100
AcDbArc
 50
270.0
 51
0.0
  0
ARC
  5
803
330
17
100
AcDbEntity
  8
SICHTBAR
100
AcDbCircle
 10
1071.956632374288
 20
586.6105261992118
 30
0.0
 40
20.0
100
AcDbArc
 50
270.0
 51
0.0
  0
ARC
  5
804
330
17
100
AcDbEntity
  8
SICHTBAR
100
AcDbCircle
 10
1116.956632374288
 20
586.6105261992118
 30
0.0
 40
20.0
100
AcDbArc
 50
180.0
 51
270.0
  0
ARC
  5
805
330
17
100
AcDbEntity
  8
DUENN
100
AcDbCircle
 10
1122.634460916161
 20
586.1105261992118
 30
0.0
 40
15.0
100
AcDbArc
 50
180.0
 51
270.0
  0
LINE
  5
806
330
17
100
AcDbEntity
  8
DUENN
100
AcDbLine
 10
1066.278803832416
 20
1037.110526199211
 30
0.0
 11
789.3094609161614
 21
1037.110526199211
 31
0.0
  0
LINE
  5
807
330
17
100
AcDbEntity
  8
DUENN
100
AcDbLine
 10
747.9538038324137
 20
826.0105261992119
 30
0.0
 11
747.9538038324131
 21
1022.110526199212
 31
0.0
  0
LINE
  5
808
330
17
100
AcDbEntity
  8
SICHTBAR
100
AcDbLine
 10
758.631632374288
 20
828.6105261992117
 30
0.0
 11
758.631632374288
 21
1021.610526199211
 31
0.0
  0
LINE
  5
809
330
17
100
AcDbEntity
  8
SICHTBAR
100
AcDbLine
 10
763.6316323742887
 20
828.6105261992119
 30
0.0
 11
763.6316323742887
 21
1021.610526199211
 31
0.0
  0
LINE
  5
80A
330
17
100
AcDbEntity
  8
DUENN
100
AcDbLine
 10
774.3094609161637
 20
826.0105261992119
 30
0.0
 11
774.3094609161644
 21
1022.110526199211
 31
0.0
  0
LINE
  5
80B
330
17
100
AcDbEntity
  8
DUENN
100
AcDbLine
 10
749.2038038324144
 20
783.4605261992119
 30
0.0
 11
773.059460916163
 21
783.4605261992119
 31
0.0
  0
LINE
  5
80C
330
17
100
AcDbEntity
  8
SICHTBAR
100
AcDbLine
 10
759.1316323742883
 20
780.1105261992121
 30
0.0
 11
763.1316323742885
 21
780.1105261992121
 31
0.0
  0
ARC
  5
80D
330
17
100
AcDbEntity
  8
DUENN
100
AcDbCircle
 10
749.2038038324144
 20
782.2105261992119
 30
0.0
 40
1.25
100
AcDbArc
 50
90.0
 51
180.0
  0
ARC
  5
80E
330
17
100
AcDbEntity
  8
SICHTBAR
100
AcDbCircle
 10
759.1316323742883
 20
779.610526199212
 30
0.0
 40
0.5
100
AcDbArc
 50
90.0
 51
180.0
  0
LINE
  5
80F
330
17
100
AcDbEntity
  8
DUENN
100
AcDbLine
 10
748.3199203559311
 20
783.0944096756952
 30
0.0
 11
758.7780789836951
 21
779.9640795898052
 31
0.0
  0
ARC
  5
810
330
17
100
AcDbEntity
  8
DUENN
100
AcDbCircle
 10
773.059460916163
 20
782.2105261992119
 30
0.0
 40
1.25
100
AcDbArc
 50
0.0
 51
90.0
  0
ARC
  5
811
330
17
100
AcDbEntity
  8
SICHTBAR
100
AcDbCircle
 10
763.1316323742885
 20
779.610526199212
 30
0.0
 40
0.5
100
AcDbArc
 50
0.0
 51
90.0
  0
LINE
  5
812
330
17
100
AcDbEntity
  8
DUENN
100
AcDbLine
 10
773.977738134346
 20
783.0586222731136
 30
0.0
 11
763.4851857648818
 21
779.9640795898052
 31
0.0
  0
LINE
  5
813
330
17
100
AcDbEntity
  8
DUENN
100
AcDbLine
 10
749.2038038324137
 20
824.7605261992118
 30
0.0
 11
773.0594609161637
 21
824.7605261992118
 31
0.0
  0
LINE
  5
814
330
17
100
AcDbEntity
  8
SICHTBAR
100
AcDbLine
 10
759.1316323742883
 20
828.110526199212
 30
0.0
 11
763.1316323742885
 21
828.110526199212
 31
0.0
  0
ARC
  5
815
330
17
100
AcDbEntity
  8
DUENN
100
AcDbCircle
 10
749.2038038324137
 20
826.0105261992119
 30
0.0
 40
1.25
100
AcDbArc
 50
180.0
 51
270.0
  0
ARC
  5
816
330
17
100
AcDbEntity
  8
SICHTBAR
100
AcDbCircle
 10
759.1316323742883
 20
828.6105261992117
 30
0.0
 40
0.5
100
AcDbArc
 50
180.0
 51
270.0
  0
LINE
  5
817
330
17
100
AcDbEntity
  8
DUENN
100
AcDbLine
 10
748.3199203559311
 20
825.1266427227287
 30
0.0
 11
758.7780789836951
 21
828.2569728086185
 31
0.0
  0
ARC
  5
818
330
17
100
AcDbEntity
  8
DUENN
100
AcDbCircle
 10
773.0594609161637
 20
826.0105261992119
 30
0.0
 40
1.25
100
AcDbArc
 50
270.0
 51
0.0
  0
ARC
  5
819
330
17
100
AcDbEntity
  8
SICHTBAR
100
AcDbCircle
 10
763.1316323742885
 20
828.6105261992119
 30
0.0
 40
0.5
100
AcDbArc
 50
270.0
 51
0.0
  0
LINE
  5
81A
330
17
100
AcDbEntity
  8
DUENN
100
AcDbLine
 10
773.977738134346
 20
825.1624301253105
 30
0.0
 11
763.4851857648818
 21
828.2569728086185
 31
0.0
  0
ARC
  5
81B
330
17
100
AcDbEntity
  8
SICHTBAR
100
AcDbCircle
 10
927.7941323742886
 20
806.6105261992122
 30
0.0
 40
50.0
100
AcDbArc
 50
198.2736972684273
 51
341.7263027315593
  0
ARC
  5
81C
330
17
100
AcDbEntity
  8
VERDECKT
100
AcDbCircle
 10
927.7941323742886
 20
806.6105261992122
 30
0.0
 40
55.0
100
AcDbArc
 50
196.5619227108646
 51
343.4380772891353
  0
ARC
  5
81D
330
17
100
AcDbEntity
  8
VERDECKT
100
AcDbCircle
 10
927.7941323742886
 20
806.6105261992122
 30
0.0
 40
56.5
100
AcDbArc
 50
196.1100807693095
 51
343.8899192306905
  0
ARC
  5
81E
330
17
100
AcDbEntity
  8
SICHTBAR
100
AcDbCircle
 10
927.7941323742886
 20
806.6105261992122
 30
0.0
 40
50.0
100
AcDbArc
 50
12.33085826000335
 51
167.6691417399966
  0
ARC
  5
81F
330
17
100
AcDbEntity
  8
VERDECKT
100
AcDbCircle
 10
927.7941323742886
 20
806.6105261992122
 30
0.0
 40
55.0
100
AcDbArc
 50
11.19462567649367
 51
168.8053743235063
  0
ARC
  5
820
330
17
100
AcDbEntity
  8
VERDECKT
100
AcDbCircle
 10
927.7941323742886
 20
806.6105261992122
 30
0.0
 40
56.5
100
AcDbArc
 50
10.89373768869877
 51
169.1062623113012
  0
ARC
  5
821
330
17
100
AcDbEntity
  8
SICHTBAR
100
AcDbCircle
 10
738.6316323742887
 20
1021.610526199211
 30
0.0
 40
20.0
100
AcDbArc
 50
0.0
 51
90.0
  0
LINE
  5
822
330
17
100
AcDbEntity
  8
SICHTBAR
100
AcDbLine
 10
783.6316323742887
 20
1041.610526199212
 30
0.0
 11
727.953803832416
 21
1041.610526199211
 31
0.0
  0
ARC
  5
823
330
17
100
AcDbEntity
  8
DUENN
100
AcDbCircle
 10
732.953803832416
 20
1022.110526199211
 30
0.0
 40
15.0
100
AcDbArc
 50
0.0
 51
90.0
  0
ARC
  5
824
330
17
100
AcDbEntity
  8
SICHTBAR
100
AcDbCircle
 10
783.6316323742887
 20
1021.610526199211
 30
0.0
 40
20.0
100
AcDbArc
 50
90.0
 51
180.0
  0
ARC
  5
825
330
17
100
AcDbEntity
  8
SICHTBAR
100
AcDbCircle
 10
783.6316323742887
 20
1021.610526199211
 30
0.0
 40
20.0
100
AcDbArc
 50
90.0
 51
180.0
  0
ARC
  5
826
330
17
100
AcDbEntity
  8
DUENN
100
AcDbCircle
 10
789.3094609161614
 20
1022.110526199211
 30
0.0
 40
15.0
100
AcDbArc
 50
90.0
 51
180.0
  0
INSERT
  5
827
330
17
100
AcDbEntity
  8
BEMASS
100
AcDbBlockReference
 66
     1
  2
SCHNITT
 10
927.9744783416955
 20
1093.200522145199
 30
0.0
 41
2.5
 42
2.5
 43
2.5
  0
ATTRIB
  5
828
330
827
100
AcDbEntity
  8
TEXT50
100
AcDbText
 10
933.3280839364052
 20
1086.947810242369
 30
0.0
 40
12.5
  1
C
 41
0.8
  7
TEXT50
100
AcDbAttribute
  2
SCHNITTB
 70
     0
  0
ATTRIB
  5
829
330
827
100
AcDbEntity
  8
PN
100
AcDbText
 10
927.9744783416955
 20
1093.200522145199
 30
0.0
 40
12.5
  1
PN000000
 41
0.8
  7
TEXT50
100
AcDbAttribute
  2
PN
 70
     1
  0
SEQEND
  5
82A
330
827
100
AcDbEntity
  8
BEMASS
  0
LINE
  5
82B
330
17
100
AcDbEntity
  8
DUENN
100
AcDbLine
 10
1081.278803832413
 20
826.0105261992119
 30
0.0
 11
1081.278803832413
 21
1022.110526199211
 31
0.0
  0
LINE
  5
82C
330
17
100
AcDbEntity
  8
SICHTBAR
100
AcDbLine
 10
1091.956632374288
 20
828.6105261992119
 30
0.0
 11
1091.956632374288
 21
1021.610526199211
 31
0.0
  0
LINE
  5
82D
330
17
100
AcDbEntity
  8
SICHTBAR
100
AcDbLine
 10
1096.956632374289
 20
828.6105261992117
 30
0.0
 11
1096.956632374289
 21
1021.610526199211
 31
0.0
  0
LINE
  5
82E
330
17
100
AcDbEntity
  8
DUENN
100
AcDbLine
 10
1107.634460916163
 20
826.0105261992119
 30
0.0
 11
1107.634460916164
 21
1022.110526199212
 31
0.0
  0
LINE
  5
82F
330
17
100
AcDbEntity
  8
SICHTBAR
100
AcDbLine
 10
1096.456632374289
 20
780.1105261992121
 30
0.0
 11
1092.456632374289
 21
780.1105261992121
 31
0.0
  0
LINE
  5
830
330
17
100
AcDbEntity
  8
DUENN
100
AcDbLine
 10
1106.384460916163
 20
783.4605261992119
 30
0.0
 11
1082.528803832414
 21
783.4605261992119
 31
0.0
  0
LINE
  5
831
330
17
100
AcDbEntity
  8
DUENN
100
AcDbLine
 10
1081.610526614231
 20
783.0586222731136
 30
0.0
 11
1092.103078983695
 21
779.9640795898052
 31
0.0
  0
ARC
  5
832
330
17
100
AcDbEntity
  8
SICHTBAR
100
AcDbCircle
 10
1092.456632374289
 20
779.610526199212
 30
0.0
 40
0.5
100
AcDbArc
 50
90.0
 51
180.0
  0
ARC
  5
833
330
17
100
AcDbEntity
  8
DUENN
100
AcDbCircle
 10
1082.528803832414
 20
782.2105261992119
 30
0.0
 40
1.25
100
AcDbArc
 50
90.0
 51
180.0
  0
LINE
  5
834
330
17
100
AcDbEntity
  8
DUENN
100
AcDbLine
 10
1107.268344392646
 20
783.0944096756952
 30
0.0
 11
1096.810185764882
 21
779.9640795898052
 31
0.0
  0
ARC
  5
835
330
17
100
AcDbEntity
  8
SICHTBAR
100
AcDbCircle
 10
1096.456632374289
 20
779.610526199212
 30
0.0
 40
0.5
100
AcDbArc
 50
0.0
 51
90.0
  0
ARC
  5
836
330
17
100
AcDbEntity
  8
DUENN
100
AcDbCircle
 10
1106.384460916163
 20
782.2105261992119
 30
0.0
 40
1.25
100
AcDbArc
 50
0.0
 51
90.0
  0
LINE
  5
837
330
17
100
AcDbEntity
  8
SICHTBAR
100
AcDbLine
 10
1096.456632374289
 20
828.110526199212
 30
0.0
 11
1092.456632374289
 21
828.110526199212
 31
0.0
  0
LINE
  5
838
330
17
100
AcDbEntity
  8
DUENN
100
AcDbLine
 10
1106.384460916163
 20
824.7605261992118
 30
0.0
 11
1082.528803832413
 21
824.7605261992118
 31
0.0
  0
LINE
  5
839
330
17
100
AcDbEntity
  8
DUENN
100
AcDbLine
 10
1081.610526614231
 20
825.1624301253105
 30
0.0
 11
1092.103078983695
 21
828.2569728086185
 31
0.0
  0
ARC
  5
83A
330
17
100
AcDbEntity
  8
SICHTBAR
100
AcDbCircle
 10
1092.456632374289
 20
828.6105261992119
 30
0.0
 40
0.5
100
AcDbArc
 50
180.0
 51
270.0
  0
ARC
  5
83B
330
17
100
AcDbEntity
  8
DUENN
100
AcDbCircle
 10
1082.528803832413
 20
826.0105261992119
 30
0.0
 40
1.25
100
AcDbArc
 50
180.0
 51
270.0
  0
LINE
  5
83C
330
17
100
AcDbEntity
  8
DUENN
100
AcDbLine
 10
1107.268344392646
 20
825.1266427227287
 30
0.0
 11
1096.810185764882
 21
828.2569728086185
 31
0.0
  0
ARC
  5
83D
330
17
100
AcDbEntity
  8
SICHTBAR
100
AcDbCircle
 10
1096.456632374289
 20
828.6105261992117
 30
0.0
 40
0.5
100
AcDbArc
 50
270.0
 51
0.0
  0
ARC
  5
83E
330
17
100
AcDbEntity
  8
DUENN
100
AcDbCircle
 10
1106.384460916163
 20
826.0105261992119
 30
0.0
 40
1.25
100
AcDbArc
 50
270.0
 51
0.0
  0
ARC
  5
83F
330
17
100
AcDbEntity
  8
DUENN
100
AcDbCircle
 10
1066.278803832416
 20
1022.110526199211
 30
0.0
 40
15.0
100
AcDbArc
 50
0.0
 51
90.0
  0
LINE
  5
840
330
17
100
AcDbEntity
  8
SICHTBAR
100
AcDbLine
 10
1116.956632374288
 20
1041.610526199212
 30
0.0
 11
1061.278803832416
 21
1041.610526199211
 31
0.0
  0
ARC
  5
841
330
17
100
AcDbEntity
  8
DUENN
100
AcDbCircle
 10
1122.634460916161
 20
1022.110526199211
 30
0.0
 40
15.0
100
AcDbArc
 50
90.0
 51
180.0
  0
ARC
  5
842
330
17
100
AcDbEntity
  8
SICHTBAR
100
AcDbCircle
 10
1116.956632374288
 20
1021.610526199211
 30
0.0
 40
20.0
100
AcDbArc
 50
90.0
 51
180.0
  0
ARC
  5
843
330
17
100
AcDbEntity
  8
SICHTBAR
100
AcDbCircle
 10
1116.956632374288
 20
1021.610526199211
 30
0.0
 40
20.0
100
AcDbArc
 50
90.0
 51
180.0
  0
ARC
  5
844
330
17
100
AcDbEntity
  8
SICHTBAR
100
AcDbCircle
 10
1071.956632374288
 20
1021.610526199211
 30
0.0
 40
20.0
100
AcDbArc
 50
0.0
 51
90.0
  0
LINE
  5
845
330
17
100
AcDbEntity
  8
SICHTBAR
100
AcDbLine
 10
1415.281632374288
 20
566.6105261992119
 30
0.0
 11
1415.281632374288
 21
851.610526199212
 31
0.0
  0
POLYLINE
  5
846
330
17
100
AcDbEntity
  8
DUENN
100
AcDb2dPolyline
 66
     1
 10
0.0
 20
0.0
 30
0.0
  0
VERTEX
  5
847
330
846
100
AcDbEntity
  8
DUENN
100
AcDbVertex
100
AcDb2dVertex
 10
1410.781632374288
 20
586.6105261992118
 30
0.0
  0
VERTEX
  5
848
330
846
100
AcDbEntity
  8
DUENN
100
AcDbVertex
100
AcDb2dVertex
 10
1410.781632374288
 20
775.9326976573391
 30
0.0
  0
SEQEND
  5
849
330
846
100
AcDbEntity
  8
DUENN
  0
ARC
  5
84A
330
17
100
AcDbEntity
  8
DUENN
100
AcDbCircle
 10
1395.281632374288
 20
586.6105261992118
 30
0.0
 40
15.50000000000011
100
AcDbArc
 50
270.0
 51
0.0
  0
ARC
  5
84B
330
17
100
AcDbEntity
  8
SICHTBAR
100
AcDbCircle
 10
1395.281632374288
 20
586.6105261992118
 30
0.0
 40
20.0
100
AcDbArc
 50
270.0
 51
0.0
  0
LINE
  5
84C
330
17
100
AcDbEntity
  8
SICHTBAR
100
AcDbLine
 10
1427.781632374288
 20
554.1105261992119
 30
0.0
 11
1415.281632374288
 21
566.6105261992119
 31
0.0
  0
LINE
  5
84D
330
17
100
AcDbEntity
  8
SICHTBAR
100
AcDbLine
 10
1415.281632374288
 20
806.6105261992122
 30
0.0
 11
1415.281632374288
 21
1041.610526199211
 31
0.0
  0
POLYLINE
  5
84E
330
17
100
AcDbEntity
  8
DUENN
100
AcDb2dPolyline
 66
     1
 10
0.0
 20
0.0
 30
0.0
  0
VERTEX
  5
84F
330
84E
100
AcDbEntity
  8
DUENN
100
AcDbVertex
100
AcDb2dVertex
 10
1410.781632374288
 20
832.2883547410846
 30
0.0
  0
VERTEX
  5
850
330
84E
100
AcDbEntity
  8
DUENN
100
AcDbVertex
100
AcDb2dVertex
 10
1410.781632374288
 20
1021.610526199211
 30
0.0
  0
SEQEND
  5
851
330
84E
100
AcDbEntity
  8
DUENN
  0
ARC
  5
852
330
17
100
AcDbEntity
  8
DUENN
100
AcDbCircle
 10
1395.781632374288
 20
832.2883547410846
 30
0.0
 40
15.0
100
AcDbArc
 50
270.0
 51
0.0
  0
ARC
  5
853
330
17
100
AcDbEntity
  8
SICHTBAR
100
AcDbCircle
 10
1395.281632374288
 20
1021.610526199211
 30
0.0
 40
20.0
100
AcDbArc
 50
0.0
 51
90.0
  0
ARC
  5
854
330
17
100
AcDbEntity
  8
DUENN
100
AcDbCircle
 10
1395.281632374288
 20
1021.610526199211
 30
0.0
 40
15.50000000000011
100
AcDbArc
 50
0.0
 51
90.0
  0
LINE
  5
855
330
17
100
AcDbEntity
  8
SICHTBAR
100
AcDbLine
 10
1427.781632374288
 20
1054.110526199211
 30
0.0
 11
1415.281632374288
 21
1041.610526199211
 31
0.0
  0
DIMENSION
  5
856
330
17
100
AcDbEntity
  8
AM_5
100
AcDbDimension
  2
*D20
 10
1427.706632374288
 20
1396.376678010429
 30
0.0
 11
927.7566323742883
 21
1408.251678010429
 31
0.0
 70
    32
  1
<>
 71
     5
 42
999.9
  3
ISO 35
100
AcDbAlignedDimension
 13
427.8066323742883
 23
1336.376678010429
 33
0.0
 14
1427.706632374288
 24
1335.12667801043
 34
0.0
 50
180.0
100
AcDbRotatedDimension
1001
ACAD
1000
DSTYLE
1002
{
1070
   271
1070
     0
1002
}
1001
GENIUS_GENDTOL_13
1000

1000
h7
1000

1040
0.0
  0
DIMENSION
  5
857
330
17
100
AcDbEntity
  8
AM_5
100
AcDbDimension
  2
*D21
 10
1480.706632374288
 20
1336.37667801043
 30
0.0
 11
1468.831632374288
 21
1296.376678010429
 31
0.0
 70
    32
  1
<>
 71
     5
 42
80.00000000000046
  3
ISO 35
100
AcDbAlignedDimension
 13
1420.706632374288
 23
1256.376678010429
 33
0.0
 14
1420.706632374288
 24
1336.37667801043
 34
0.0
 50
90.0
100
AcDbRotatedDimension
1001
ACAD
1000
DSTYLE
1002
{
1070
   271
1070
     0
1002
}
1001
GENIUS_GENDTOL_13
1000

1000
h7
1000

1040
0.0
  0
DIMENSION
  5
858
330
17
100
AcDbEntity
  8
AM_5
100
AcDbDimension
  2
*D22
 10
1775.912496134262
 20
1054.11052619921
 30
0.0
 11
1775.912496134262
 21
805.3266662456907
 31
0.0
 70
   160
  1
<>
 71
     5
 42
499.9999999999988
  3
ISO 35
100
AcDbAlignedDimension
 13
1708.913251756505
 23
554.1105261992119
 33
0.0
 14
1708.913251756505
 24
1054.11052619921
 34
0.0
 50
90.0
100
AcDbRotatedDimension
1001
ACAD
1000
DSTYLE
1002
{
1070
   271
1070
     0
1002
}
1001
GENIUS_GENDTOL_13
1000

1000
h7
1000

1040
0.0
  0
VIEWPORT
  5
61
102
{ACAD_XDICTIONARY
360
8E2
102
}
330
14
100
AcDbEntity
 67
     1
  8
0
100
AcDbViewport
 10
208.5
 20
172.772378516624
 30
0.0
 40
417.0
 41
345.5447570332481
 68
     1
 69
     1
 12
208.5
 22
172.772378516624
 13
0.0
 23
0.0
 14
10.0
 24
10.0
 15
10.0
 25
10.0
 16
0.0
 26
0.0
 36
1.0
 17
0.0
 27
0.0
 37
0.0
 42
50.0
 43
0.0
 44
0.0
 45
345.5447570332481
 50
0.0
 51
0.0
 72
   100
 90
    32800
  1

281
     0
 71
     1
 74
     0
110
0.0
120
0.0
130
0.0
111
1.0
121
0.0
131
0.0
112
0.0
122
1.0
132
0.0
 79
     0
146
0.0
1001
GENIUS_GENSCREG_15
1000
PF
1040
1.0
1000
DF
1040
1.0
1000
MIN
1011
0.0
1021
0.0
1031
0.0
1000
MAX
1011
417.0
1021
345.5447570332481
1031
0.0
1000
FLAGS
1070
     4
1001
GENIUS_GENODEF_13
1002
{
1000
HIER
1070
     0
1002
}
1002
{
1000
MANEDIT
1070
     0
1002
}
1002
{
1000
NOSEL
1070
     0
1002
}
1002
{
1000
BEHIND
1070
     0
1002
}
1002
{
1000
OTHER
1070
     0
1002
}
1002
{
1000
REACTOR
1002
}
1001
GENIUS_GENOBJ-N-SDF_13
1002
{
1000
OWNER
1000
GEN
1002
}
  0
ENDSEC
  0
SECTION
  2
OBJECTS
  0
DICTIONARY
  5
C
330
0
100
AcDbDictionary
281
     1
  3
ACAD_COLOR
350
270
  3
ACAD_GROUP
350
D
  3
ACAD_LAYOUT
350
19E
  3
ACAD_MATERIAL
350
243
  3
ACAD_MLEADERSTYLE
350
295
  3
ACAD_MLINESTYLE
350
1A
  3
ACAD_PLOTSETTINGS
350
19F
  3
ACAD_PLOTSTYLENAME
350
19C
  3
ACAD_SCALELIST
350
273
  3
ACAD_TABLESTYLE
350
271
  3
ACAD_VISUALSTYLE
350
25C
  3
ACDB_RECOMPOSE_DATA
350
8E0
  3
ACDBVARIABLEDICTIONARY
350
57
  3
AcmDictionary
350
2FD
  3
AMG
350
29B
  3
AMGSNAPSETTINGS
350
372
  3
DWGPROPS
350
8E1
  0
DICTIONARY
  5
3AC
330
2
100
AcDbDictionary
280
     1
281
     1
  3
ACAD_LAYERSTATES
360
3AD
  0
DICTIONARY
  5
898
330
E
100
AcDbDictionary
280
     1
281
     1
  3
ADSK_XREC_LAYER_RECONCILED
360
899
  0
DICTIONARY
  5
89A
330
3B
100
AcDbDictionary
280
     1
281
     1
  3
ADSK_XREC_LAYER_RECONCILED
360
89B
  0
DICTIONARY
  5
89C
330
3C
100
AcDbDictionary
280
     1
281
     1
  3
ADSK_XREC_LAYER_RECONCILED
360
89D
  0
DICTIONARY
  5
89E
330
3D
100
AcDbDictionary
280
     1
281
     1
  3
ADSK_XREC_LAYER_RECONCILED
360
89F
  0
DICTIONARY
  5
8A0
330
3E
100
AcDbDictionary
280
     1
281
     1
  3
ADSK_XREC_LAYER_RECONCILED
360
8A1
  0
DICTIONARY
  5
8A2
330
3F
100
AcDbDictionary
280
     1
281
     1
  3
ADSK_XREC_LAYER_RECONCILED
360
8A3
  0
DICTIONARY
  5
8A4
330
41
100
AcDbDictionary
280
     1
281
     1
  3
ADSK_XREC_LAYER_RECONCILED
360
8A5
  0
DICTIONARY
  5
8A6
330
43
100
AcDbDictionary
280
     1
281
     1
  3
ADSK_XREC_LAYER_RECONCILED
360
8A7
  0
DICTIONARY
  5
8A8
330
44
100
AcDbDictionary
280
     1
281
     1
  3
ADSK_XREC_LAYER_RECONCILED
360
8A9
  0
DICTIONARY
  5
8AA
330
46
100
AcDbDictionary
280
     1
281
     1
  3
ADSK_XREC_LAYER_RECONCILED
360
8AB
  0
DICTIONARY
  5
8AC
330
47
100
AcDbDictionary
280
     1
281
     1
  3
ADSK_XREC_LAYER_RECONCILED
360
8AD
  0
DICTIONARY
  5
8AE
330
48
100
AcDbDictionary
280
     1
281
     1
  3
ADSK_XREC_LAYER_RECONCILED
360
8AF
  0
DICTIONARY
  5
8B0
330
49
100
AcDbDictionary
280
     1
281
     1
  3
ADSK_XREC_LAYER_RECONCILED
360
8B1
  0
DICTIONARY
  5
8B2
330
4A
100
AcDbDictionary
280
     1
281
     1
  3
ADSK_XREC_LAYER_RECONCILED
360
8B3
  0
DICTIONARY
  5
8B4
330
4C
100
AcDbDictionary
280
     1
281
     1
  3
ADSK_XREC_LAYER_RECONCILED
360
8B5
  0
DICTIONARY
  5
8B6
330
4D
100
AcDbDictionary
280
     1
281
     1
  3
ADSK_XREC_LAYER_RECONCILED
360
8B7
  0
DICTIONARY
  5
8B8
330
4F
100
AcDbDictionary
280
     1
281
     1
  3
ADSK_XREC_LAYER_RECONCILED
360
8B9
  0
DICTIONARY
  5
8BA
330
50
100
AcDbDictionary
280
     1
281
     1
  3
ADSK_XREC_LAYER_RECONCILED
360
8BB
  0
DICTIONARY
  5
8BC
330
52
100
AcDbDictionary
280
     1
281
     1
  3
ADSK_XREC_LAYER_RECONCILED
360
8BD
  0
DICTIONARY
  5
8BE
330
336
100
AcDbDictionary
280
     1
281
     1
  3
ADSK_XREC_LAYER_RECONCILED
360
8BF
  0
DICTIONARY
  5
8C0
330
4A3
100
AcDbDictionary
280
     1
281
     1
  3
ADSK_XREC_LAYER_RECONCILED
360
8C1
  0
DICTIONARY
  5
8C2
330
4A4
100
AcDbDictionary
280
     1
281
     1
  3
ADSK_XREC_LAYER_RECONCILED
360
8C3
  0
DICTIONARY
  5
8C4
330
4A5
100
AcDbDictionary
280
     1
281
     1
  3
ADSK_XREC_LAYER_RECONCILED
360
8C5
  0
DICTIONARY
  5
3C7
330
3AE
100
AcDbDictionary
280
     1
281
     1
  3
ACAD_SORTENTS
360
3C8
  0
DICTIONARY
  5
8E2
330
61
100
AcDbDictionary
280
     1
281
     1
  3
ACAD_XREC_ROUNDTRIP
360
8E3
  0
DICTIONARY
  5
270
102
{ACAD_REACTORS
330
C
102
}
330
C
100
AcDbDictionary
281
     1
  0
DICTIONARY
  5
D
102
{ACAD_REACTORS
330
C
102
}
330
C
100
AcDbDictionary
281
     1
  0
DICTIONARY
  5
19E
102
{ACAD_REACTORS
330
C
102
}
330
C
100
AcDbDictionary
281
     1
  3
Layout1
350
1A1
  3
Model
350
1A0
  0
DICTIONARY
  5
243
102
{ACAD_REACTORS
330
C
102
}
330
C
100
AcDbDictionary
281
     1
  3
ByBlock
350
24C
  3
ByLayer
350
244
  3
Global
350
254
  0
DICTIONARY
  5
295
102
{ACAD_REACTORS
330
C
102
}
330
C
100
AcDbDictionary
281
     1
  3
Standard
350
296
  0
DICTIONARY
  5
1A
102
{ACAD_REACTORS
330
C
102
}
330
C
100
AcDbDictionary
281
     1
  3
STANDARD
350
1B
  0
DICTIONARY
  5
19F
102
{ACAD_REACTORS
330
C
102
}
330
C
100
AcDbDictionary
281
     1
  0
ACDBDICTIONARYWDFLT
  5
19C
102
{ACAD_REACTORS
330
C
102
}
330
C
100
AcDbDictionary
281
     1
  3
Normal
350
19D
100
AcDbDictionaryWithDefault
340
19D
  0
DICTIONARY
  5
273
102
{ACAD_REACTORS
330
C
102
}
330
C
100
AcDbDictionary
281
     1
  3
A0
350
274
  3
A1
350
275
  3
A2
350
276
  3
A3
350
277
  3
A4
350
278
  3
A5
350
279
  3
A6
350
27A
  3
A7
350
27B
  3
A8
350
27C
  3
A9
350
27D
  3
B0
350
27E
  3
B1
350
27F
  3
B2
350
280
  3
B3
350
281
  3
B4
350
282
  3
B5
350
283
  3
B6
350
284
  3
B7
350
285
  3
B8
350
286
  3
B9
350
287
  3
C0
350
288
  3
C1
350
289
  3
C2
350
28A
  3
C3
350
28B
  3
C4
350
28C
  3
C5
350
28D
  3
C6
350
28E
  3
C7
350
28F
  3
C8
350
290
  3
C9
350
291
  3
D0
350
292
  3
D1
350
293
  3
D2
350
294
  0
DICTIONARY
  5
271
102
{ACAD_REACTORS
330
C
102
}
330
C
100
AcDbDictionary
281
     1
  3
Standard
350
272
  0
DICTIONARY
  5
25C
102
{ACAD_REACTORS
330
C
102
}
330
C
100
AcDbDictionary
281
     1
  3
2dWireframe
350
262
  3
3D Hidden
350
264
  3
3dWireframe
350
263
  3
Basic
350
261
  3
Brighten
350
268
  3
ColorChange
350
26C
  3
Conceptual
350
265
  3
Dim
350
267
  3
EdgeColorOff
350
26F
  3
Facepattern
350
26B
  3
Flat
350
25D
  3
FlatWithEdges
350
25E
  3
Gouraud
350
25F
  3
GouraudWithEdges
350
260
  3
JitterOff
350
26D
  3
Linepattern
350
26A
  3
OverhangOff
350
26E
  3
Realistic
350
266
  3
Thicken
350
269
  0
XRECORD
  5
8E0
102
{ACAD_REACTORS
330
C
102
}
330
C
100
AcDbXrecord
280
     1
 90
        1
330
272
  0
DICTIONARY
  5
57
102
{ACAD_REACTORS
330
C
102
}
330
C
100
AcDbDictionary
281
     1
  3
CANNOSCALE
350
8D9
  3
CMLEADERSTYLE
350
8D8
  3
CTABLESTYLE
350
8D7
  3
DIMADEC
350
58
  3
DIMASSOC
350
8DC
  3
INDEXCTL
350
8DB
  3
SORTENTS
350
8DA
  3
XCLIPFRAME
350
8DD
  0
DICTIONARY
  5
2FD
102
{ACAD_REACTORS
330
C
102
}
330
C
100
AcDbDictionary
281
     1
  3
AcmStdDictionary
350
307
  0
DICTIONARY
  5
29B
102
{ACAD_REACTORS
330
C
102
}
330
C
100
AcDbDictionary
281
     1
  0
DICTIONARY
  5
372
102
{ACAD_REACTORS
330
C
102
}
330
C
100
AcDbDictionary
281
     1
  0
XRECORD
  5
8E1
102
{ACAD_REACTORS
330
C
102
}
330
C
100
AcDbXrecord
280
     1
  1
DWGPROPS COOKIE
  2

  3

  4

  6

  7

  8
osetzke
  9

300
=
301
=
302
=
303
=
304
=
305
=
306
=
307
=
308
=
309
=
 40
0.1202632638888889
 41
2450029.588839815
 42
2456372.473774468
  1

 90
        0
  0
DICTIONARY
  5
3AD
102
{ACAD_REACTORS
330
3AC
102
}
330
3AC
100
AcDbDictionary
281
     1
  0
XRECORD
  5
899
102
{ACAD_REACTORS
330
898
102
}
330
898
100
AcDbXrecord
280
     1
290
     1
  0
XRECORD
  5
89B
102
{ACAD_REACTORS
330
89A
102
}
330
89A
100
AcDbXrecord
280
     1
290
     1
  0
XRECORD
  5
89D
102
{ACAD_REACTORS
330
89C
102
}
330
89C
100
AcDbXrecord
280
     1
290
     1
  0
XRECORD
  5
89F
102
{ACAD_REACTORS
330
89E
102
}
330
89E
100
AcDbXrecord
280
     1
290
     1
  0
XRECORD
  5
8A1
102
{ACAD_REACTORS
330
8A0
102
}
330
8A0
100
AcDbXrecord
280
     1
290
     1
  0
XRECORD
  5
8A3
102
{ACAD_REACTORS
330
8A2
102
}
330
8A2
100
AcDbXrecord
280
     1
290
     1
  0
XRECORD
  5
8A5
102
{ACAD_REACTORS
330
8A4
102
}
330
8A4
100
AcDbXrecord
280
     1
290
     1
  0
XRECORD
  5
8A7
102
{ACAD_REACTORS
330
8A6
102
}
330
8A6
100
AcDbXrecord
280
     1
290
     1
  0
XRECORD
  5
8A9
102
{ACAD_REACTORS
330
8A8
102
}
330
8A8
100
AcDbXrecord
280
     1
290
     1
  0
XRECORD
  5
8AB
102
{ACAD_REACTORS
330
8AA
102
}
330
8AA
100
AcDbXrecord
280
     1
290
     1
  0
XRECORD
  5
8AD
102
{ACAD_REACTORS
330
8AC
102
}
330
8AC
100
AcDbXrecord
280
     1
290
     1
  0
XRECORD
  5
8AF
102
{ACAD_REACTORS
330
8AE
102
}
330
8AE
100
AcDbXrecord
280
     1
290
     1
  0
XRECORD
  5
8B1
102
{ACAD_REACTORS
330
8B0
102
}
330
8B0
100
AcDbXrecord
280
     1
290
     1
  0
XRECORD
  5
8B3
102
{ACAD_REACTORS
330
8B2
102
}
330
8B2
100
AcDbXrecord
280
     1
290
     1
  0
XRECORD
  5
8B5
102
{ACAD_REACTORS
330
8B4
102
}
330
8B4
100
AcDbXrecord
280
     1
290
     1
  0
XRECORD
  5
8B7
102
{ACAD_REACTORS
330
8B6
102
}
330
8B6
100
AcDbXrecord
280
     1
290
     1
  0
XRECORD
  5
8B9
102
{ACAD_REACTORS
330
8B8
102
}
330
8B8
100
AcDbXrecord
280
     1
290
     1
  0
XRECORD
  5
8BB
102
{ACAD_REACTORS
330
8BA
102
}
330
8BA
100
AcDbXrecord
280
     1
290
     1
  0
XRECORD
  5
8BD
102
{ACAD_REACTORS
330
8BC
102
}
330
8BC
100
AcDbXrecord
280
     1
290
     1
  0
XRECORD
  5
8BF
102
{ACAD_REACTORS
330
8BE
102
}
330
8BE
100
AcDbXrecord
280
     1
290
     1
  0
XRECORD
  5
8C1
102
{ACAD_REACTORS
330
8C0
102
}
330
8C0
100
AcDbXrecord
280
     1
290
     1
  0
XRECORD
  5
8C3
102
{ACAD_REACTORS
330
8C2
102
}
330
8C2
100
AcDbXrecord
280
     1
290
     1
  0
XRECORD
  5
8C5
102
{ACAD_REACTORS
330
8C4
102
}
330
8C4
100
AcDbXrecord
280
     1
290
     1
  0
SORTENTSTABLE
  5
3C8
102
{ACAD_REACTORS
330
3C7
102
}
330
3C7
100
AcDbSortentsTable
330
3AE
  0
XRECORD
  5
8E3
102
{ACAD_REACTORS
330
8E2
102
}
330
8E2
100
AcDbXrecord
280
     1
102
SHADEPLOT
 70
     0
  0
LAYOUT
  5
1A1
102
{ACAD_XDICTIONARY
360
8E5
102
}
102
{ACAD_REACTORS
330
19E
102
}
330
19E
100
AcDbPlotSettings
  1

  2
\\ACO_CAD\HP_4MV_ACO
  4

  6

 40
0.0
 41
0.0
 42
0.0
 43
0.0
 44
0.0
 45
0.0
 46
0.0
 47
0.0
 48
0.0
 49
0.0
140
0.0
141
0.0
142
1.0
143
1.0
 70
   688
 72
     0
 73
     0
 74
     5
  7
acad.ctb
 75
    16
147
1.0
148
0.0
149
0.0
100
AcDbLayout
  1
Layout1
 70
     0
 71
     1
 10
0.0
 20
0.0
 11
417.0
 21
288.0
 12
0.0
 22
0.0
 32
0.0
 14
1.000000000000000E+20
 24
1.000000000000000E+20
 34
1.000000000000000E+20
 15
-1.000000000000000E+20
 25
-1.000000000000000E+20
 35
-1.000000000000000E+20
146
0.0
 13
0.0
 23
0.0
 33
0.0
 16
1.0
 26
0.0
 36
0.0
 17
0.0
 27
1.0
 37
0.0
 76
     0
330
14
331
61
  0
LAYOUT
  5
1A0
102
{ACAD_XDICTIONARY
360
8CE
102
}
102
{ACAD_REACTORS
330
19E
102
}
330
19E
100
AcDbPlotSettings
  1

  2
\\ACO_CAD\HP_4MV_ACO
  4

  6

 40
0.0
 41
0.0
 42
0.0
 43
0.0
 44
0.0
 45
0.0
 46
0.0
 47
0.0
 48
0.0
 49
0.0
140
0.0
141
0.0
142
1.0
143
1.0
 70
  1712
 72
     0
 73
     0
 74
     0
  7
acad.ctb
 75
     0
147
1.0
148
0.0
149
0.0
100
AcDbLayout
  1
Model
 70
     1
 71
     0
 10
0.0
 20
0.0
 11
12.0
 21
9.0
 12
0.0
 22
0.0
 32
0.0
 14
0.0
 24
0.0
 34
0.0
 15
0.0
 25
0.0
 35
0.0
146
0.0
 13
0.0
 23
0.0
 33
0.0
 16
1.0
 26
0.0
 36
0.0
 17
0.0
 27
1.0
 37
0.0
 76
     0
330
17
331
241
  0
MATERIAL
  5
24C
102
{ACAD_XDICTIONARY
360
24D
102
}
102
{ACAD_REACTORS
330
243
102
}
330
243
100
AcDbMaterial
  1
ByBlock
 72
     0
 43
0.0208333333333333
 43
0.0
 43
0.0
 43
0.0
 43
0.0
 43
0.0208333333333333
 43
0.0
 43
0.0
 43
0.0
 43
0.0
 43
1.0
 43
0.0
 43
0.0
 43
0.0
 43
0.0
 43
1.0
 77
     0
 47
0.0208333333333333
 47
0.0
 47
0.0
 47
0.0
 47
0.0
 47
0.0208333333333333
 47
0.0
 47
0.0
 47
0.0
 47
0.0
 47
1.0
 47
0.0
 47
0.0
 47
0.0
 47
0.0
 47
1.0
171
     0
 49
0.0208333333333333
 49
0.0
 49
0.0
 49
0.0
 49
0.0
 49
0.0208333333333333
 49
0.0
 49
0.0
 49
0.0
 49
0.0
 49
1.0
 49
0.0
 49
0.0
 49
0.0
 49
0.0
 49
1.0
175
     0
142
0.0208333333333333
142
0.0
142
0.0
142
0.0
142
0.0
142
0.0208333333333333
142
0.0
142
0.0
142
0.0
142
0.0
142
1.0
142
0.0
142
0.0
142
0.0
142
0.0
142
1.0
179
     0
144
0.0208333333333333
144
0.0
144
0.0
144
0.0
144
0.0
144
0.0208333333333333
144
0.0
144
0.0
144
0.0
144
0.0
144
1.0
144
0.0
144
0.0
144
0.0
144
0.0
144
1.0
147
0.0208333333333333
147
0.0
147
0.0
147
0.0
147
0.0
147
0.0208333333333333
147
0.0
147
0.0
147
0.0
147
0.0
147
1.0
147
0.0
147
0.0
147
0.0
147
0.0
147
1.0
  0
MATERIAL
  5
244
102
{ACAD_XDICTIONARY
360
245
102
}
102
{ACAD_REACTORS
330
243
102
}
330
243
100
AcDbMaterial
  1
ByLayer
 72
     0
 43
0.0208333333333333
 43
0.0
 43
0.0
 43
0.0
 43
0.0
 43
0.0208333333333333
 43
0.0
 43
0.0
 43
0.0
 43
0.0
 43
1.0
 43
0.0
 43
0.0
 43
0.0
 43
0.0
 43
1.0
 77
     0
 47
0.0208333333333333
 47
0.0
 47
0.0
 47
0.0
 47
0.0
 47
0.0208333333333333
 47
0.0
 47
0.0
 47
0.0
 47
0.0
 47
1.0
 47
0.0
 47
0.0
 47
0.0
 47
0.0
 47
1.0
171
     0
 49
0.0208333333333333
 49
0.0
 49
0.0
 49
0.0
 49
0.0
 49
0.0208333333333333
 49
0.0
 49
0.0
 49
0.0
 49
0.0
 49
1.0
 49
0.0
 49
0.0
 49
0.0
 49
0.0
 49
1.0
175
     0
142
0.0208333333333333
142
0.0
142
0.0
142
0.0
142
0.0
142
0.0208333333333333
142
0.0
142
0.0
142
0.0
142
0.0
142
1.0
142
0.0
142
0.0
142
0.0
142
0.0
142
1.0
179
     0
144
0.0208333333333333
144
0.0
144
0.0
144
0.0
144
0.0
144
0.0208333333333333
144
0.0
144
0.0
144
0.0
144
0.0
144
1.0
144
0.0
144
0.0
144
0.0
144
0.0
144
1.0
147
0.0208333333333333
147
0.0
147
0.0
147
0.0
147
0.0
147
0.0208333333333333
147
0.0
147
0.0
147
0.0
147
0.0
147
1.0
147
0.0
147
0.0
147
0.0
147
0.0
147
1.0
  0
MATERIAL
  5
254
102
{ACAD_XDICTIONARY
360
255
102
}
102
{ACAD_REACTORS
330
243
102
}
330
243
100
AcDbMaterial
  1
Global
 72
     0
 43
0.0208333333333333
 43
0.0
 43
0.0
 43
0.0
 43
0.0
 43
0.0208333333333333
 43
0.0
 43
0.0
 43
0.0
 43
0.0
 43
1.0
 43
0.0
 43
0.0
 43
0.0
 43
0.0
 43
1.0
 77
     0
 47
0.0208333333333333
 47
0.0
 47
0.0
 47
0.0
 47
0.0
 47
0.0208333333333333
 47
0.0
 47
0.0
 47
0.0
 47
0.0
 47
1.0
 47
0.0
 47
0.0
 47
0.0
 47
0.0
 47
1.0
171
     0
 49
0.0208333333333333
 49
0.0
 49
0.0
 49
0.0
 49
0.0
 49
0.0208333333333333
 49
0.0
 49
0.0
 49
0.0
 49
0.0
 49
1.0
 49
0.0
 49
0.0
 49
0.0
 49
0.0
 49
1.0
175
     0
142
0.0208333333333333
142
0.0
142
0.0
142
0.0
142
0.0
142
0.0208333333333333
142
0.0
142
0.0
142
0.0
142
0.0
142
1.0
142
0.0
142
0.0
142
0.0
142
0.0
142
1.0
179
     0
144
0.0208333333333333
144
0.0
144
0.0
144
0.0
144
0.0
144
0.0208333333333333
144
0.0
144
0.0
144
0.0
144
0.0
144
1.0
144
0.0
144
0.0
144
0.0
144
0.0
144
1.0
147
0.0208333333333333
147
0.0
147
0.0
147
0.0
147
0.0
147
0.0208333333333333
147
0.0
147
0.0
147
0.0
147
0.0
147
1.0
147
0.0
147
0.0
147
0.0
147
0.0
147
1.0
  0
MLEADERSTYLE
  5
296
102
{ACAD_REACTORS
330
295
102
}
330
295
100
AcDbMLeaderStyle
170
     2
171
     1
172
     0
 90
        2
 40
0.0
 41
0.0
173
     1
 91
-1056964608
340
11
 92
       -2
290
     1
 42
0.09
291
     1
 43
0.36
  3
Standard
 44
0.18
300

342
F
174
     1
178
     6
175
     1
176
     0
 93
-1056964608
 45
0.18
292
     0
297
     0
 46
0.18
 94
-1056964608
 47
1.0
 49
1.0
140
1.0
293
     1
141
0.0
294
     1
177
     0
142
1.0
295
     0
296
     0
143
0.125
1001
ACAD_MLEADERVER
1070
     2
  0
MLINESTYLE
  5
1B
102
{ACAD_REACTORS
330
1A
102
}
330
1A
100
AcDbMlineStyle
  2
STANDARD
 70
     0
  3

 62
   256
 51
90.0
 52
90.0
 71
     2
 49
0.5
 62
   256
  6
BYLAYER
 49
-0.5
 62
   256
  6
BYLAYER
  0
ACDBPLACEHOLDER
  5
19D
102
{ACAD_REACTORS
330
19C
102
}
330
19C
  0
SCALE
  5
274
102
{ACAD_REACTORS
330
273
102
}
330
273
100
AcDbScale
 70
     0
300
1:1
140
1.0
141
1.0
290
     1
  0
SCALE
  5
275
102
{ACAD_REACTORS
330
273
102
}
330
273
100
AcDbScale
 70
     0
300
1:2
140
1.0
141
2.0
290
     0
  0
SCALE
  5
276
102
{ACAD_REACTORS
330
273
102
}
330
273
100
AcDbScale
 70
     0
300
1:4
140
1.0
141
4.0
290
     0
  0
SCALE
  5
277
102
{ACAD_REACTORS
330
273
102
}
330
273
100
AcDbScale
 70
     0
300
1:5
140
1.0
141
5.0
290
     0
  0
SCALE
  5
278
102
{ACAD_REACTORS
330
273
102
}
330
273
100
AcDbScale
 70
     0
300
1:8
140
1.0
141
8.0
290
     0
  0
SCALE
  5
279
102
{ACAD_REACTORS
330
273
102
}
330
273
100
AcDbScale
 70
     0
300
1:10
140
1.0
141
10.0
290
     0
  0
SCALE
  5
27A
102
{ACAD_REACTORS
330
273
102
}
330
273
100
AcDbScale
 70
     0
300
1:16
140
1.0
141
16.0
290
     0
  0
SCALE
  5
27B
102
{ACAD_REACTORS
330
273
102
}
330
273
100
AcDbScale
 70
     0
300
1:20
140
1.0
141
20.0
290
     0
  0
SCALE
  5
27C
102
{ACAD_REACTORS
330
273
102
}
330
273
100
AcDbScale
 70
     0
300
1:30
140
1.0
141
30.0
290
     0
  0
SCALE
  5
27D
102
{ACAD_REACTORS
330
273
102
}
330
273
100
AcDbScale
 70
     0
300
1:40
140
1.0
141
40.0
290
     0
  0
SCALE
  5
27E
102
{ACAD_REACTORS
330
273
102
}
330
273
100
AcDbScale
 70
     0
300
1:50
140
1.0
141
50.0
290
     0
  0
SCALE
  5
27F
102
{ACAD_REACTORS
330
273
102
}
330
273
100
AcDbScale
 70
     0
300
1:100
140
1.0
141
100.0
290
     0
  0
SCALE
  5
280
102
{ACAD_REACTORS
330
273
102
}
330
273
100
AcDbScale
 70
     0
300
2:1
140
2.0
141
1.0
290
     0
  0
SCALE
  5
281
102
{ACAD_REACTORS
330
273
102
}
330
273
100
AcDbScale
 70
     0
300
4:1
140
4.0
141
1.0
290
     0
  0
SCALE
  5
282
102
{ACAD_REACTORS
330
273
102
}
330
273
100
AcDbScale
 70
     0
300
8:1
140
8.0
141
1.0
290
     0
  0
SCALE
  5
283
102
{ACAD_REACTORS
330
273
102
}
330
273
100
AcDbScale
 70
     0
300
10:1
140
10.0
141
1.0
290
     0
  0
SCALE
  5
284
102
{ACAD_REACTORS
330
273
102
}
330
273
100
AcDbScale
 70
     0
300
100:1
140
100.0
141
1.0
290
     0
  0
SCALE
  5
285
102
{ACAD_REACTORS
330
273
102
}
330
273
100
AcDbScale
 70
     0
300
1/128" = 1'-0"
140
0.0078125
141
12.0
290
     0
  0
SCALE
  5
286
102
{ACAD_REACTORS
330
273
102
}
330
273
100
AcDbScale
 70
     0
300
1/64" = 1'-0"
140
0.015625
141
12.0
290
     0
  0
SCALE
  5
287
102
{ACAD_REACTORS
330
273
102
}
330
273
100
AcDbScale
 70
     0
300
1/32" = 1'-0"
140
0.03125
141
12.0
290
     0
  0
SCALE
  5
288
102
{ACAD_REACTORS
330
273
102
}
330
273
100
AcDbScale
 70
     0
300
1/16" = 1'-0"
140
0.0625
141
12.0
290
     0
  0
SCALE
  5
289
102
{ACAD_REACTORS
330
273
102
}
330
273
100
AcDbScale
 70
     0
300
3/32" = 1'-0"
140
0.09375
141
12.0
290
     0
  0
SCALE
  5
28A
102
{ACAD_REACTORS
330
273
102
}
330
273
100
AcDbScale
 70
     0
300
1/8" = 1'-0"
140
0.125
141
12.0
290
     0
  0
SCALE
  5
28B
102
{ACAD_REACTORS
330
273
102
}
330
273
100
AcDbScale
 70
     0
300
3/16" = 1'-0"
140
0.1875
141
12.0
290
     0
  0
SCALE
  5
28C
102
{ACAD_REACTORS
330
273
102
}
330
273
100
AcDbScale
 70
     0
300
1/4" = 1'-0"
140
0.25
141
12.0
290
     0
  0
SCALE
  5
28D
102
{ACAD_REACTORS
330
273
102
}
330
273
100
AcDbScale
 70
     0
300
3/8" = 1'-0"
140
0.375
141
12.0
290
     0
  0
SCALE
  5
28E
102
{ACAD_REACTORS
330
273
102
}
330
273
100
AcDbScale
 70
     0
300
1/2" = 1'-0"
140
0.5
141
12.0
290
     0
  0
SCALE
  5
28F
102
{ACAD_REACTORS
330
273
102
}
330
273
100
AcDbScale
 70
     0
300
3/4" = 1'-0"
140
0.75
141
12.0
290
     0
  0
SCALE
  5
290
102
{ACAD_REACTORS
330
273
102
}
330
273
100
AcDbScale
 70
     0
300
1" = 1'-0"
140
1.0
141
12.0
290
     0
  0
SCALE
  5
291
102
{ACAD_REACTORS
330
273
102
}
330
273
100
AcDbScale
 70
     0
300
1-1/2" = 1'-0"
140
1.5
141
12.0
290
     0
  0
SCALE
  5
292
102
{ACAD_REACTORS
330
273
102
}
330
273
100
AcDbScale
 70
     0
300
3" = 1'-0"
140
3.0
141
12.0
290
     0
  0
SCALE
  5
293
102
{ACAD_REACTORS
330
273
102
}
330
273
100
AcDbScale
 70
     0
300
6" = 1'-0"
140
6.0
141
12.0
290
     0
  0
SCALE
  5
294
102
{ACAD_REACTORS
330
273
102
}
330
273
100
AcDbScale
 70
     0
300
1'-0" = 1'-0"
140
12.0
141
12.0
290
     0
  0
TABLESTYLE
  5
272
102
{ACAD_XDICTIONARY
360
8DE
102
}
102
{ACAD_REACTORS
330
271
102
}
330
271
100
AcDbTableStyle
  3
Standard
 70
     0
 71
     0
 40
0.06
 41
0.06
280
     0
281
     0
  7
STANDARD
140
0.18
170
     2
 62
     0
 63
     7
283
     0
274
    -2
284
     1
 64
     0
275
    -2
285
     1
 65
     0
276
    -2
286
     1
 66
     0
277
    -2
287
     1
 67
     0
278
    -2
288
     1
 68
     0
279
    -2
289
     1
 69
     0
  7
STANDARD
140
0.25
170
     5
 62
     0
 63
     7
283
     0
274
    -2
284
     1
 64
     0
275
    -2
285
     1
 65
     0
276
    -2
286
     1
 66
     0
277
    -2
287
     1
 67
     0
278
    -2
288
     1
 68
     0
279
    -2
289
     1
 69
     0
  7
STANDARD
140
0.18
170
     5
 62
     0
 63
     7
283
     0
274
    -2
284
     1
 64
     0
275
    -2
285
     1
 65
     0
276
    -2
286
     1
 66
     0
277
    -2
287
     1
 67
     0
278
    -2
288
     1
 68
     0
279
    -2
289
     1
 69
     0
  0
VISUALSTYLE
  5
262
102
{ACAD_XDICTIONARY
360
8F4
102
}
102
{ACAD_REACTORS
330
25C
102
}
330
25C
100
AcDbVisualStyle
  2
2dWireframe
 70
     4
 71
     0
 72
     2
 73
     0
 90
        0
 40
-0.6
 41
-30.0
 62
     5
 63
     7
 74
     1
 91
        4
 64
     7
 65
   257
 75
     1
175
     1
 42
1.0
 92
        0
 66
   257
 43
1.0
 76
     1
 77
     6
 78
     2
 67
     7
 79
     5
170
     0
171
     0
290
     0
174
     0
 93
        1
 44
0.0
173
     0
291
     0
 45
0.0
1001
ACAD
1000
AcDbSavedByObjectVersion
1070
     0
  0
VISUALSTYLE
  5
264
102
{ACAD_XDICTIONARY
360
8F8
102
}
102
{ACAD_REACTORS
330
25C
102
}
330
25C
100
AcDbVisualStyle
  2
3D Hidden
 70
     6
 71
     1
 72
     2
 73
     2
 90
        0
 40
-0.6
 41
-30.0
 62
     5
 63
     7
 74
     2
 91
        2
 64
     7
 65
   257
 75
     2
175
     1
 42
179.0
 92
        0
 66
   257
 43
1.0
 76
     1
 77
     6
 78
     2
 67
     7
 79
     3
170
     0
171
     0
290
     0
174
     0
 93
        1
 44
0.0
173
     0
291
     0
 45
0.0
1001
ACAD
1000
AcDbSavedByObjectVersion
1070
     0
  0
VISUALSTYLE
  5
263
102
{ACAD_XDICTIONARY
360
8F6
102
}
102
{ACAD_REACTORS
330
25C
102
}
330
25C
100
AcDbVisualStyle
  2
3dWireframe
 70
     5
 71
     0
 72
     2
 73
     0
 90
        0
 40
-0.6
 41
-30.0
 62
     5
 63
     7
 74
     1
 91
        4
 64
     7
 65
   257
 75
     1
175
     1
 42
1.0
 92
        0
 66
   257
 43
1.0
 76
     1
 77
     6
 78
     2
 67
     7
 79
     5
170
     0
171
     0
290
     0
174
     0
 93
        1
 44
0.0
173
     0
291
     0
 45
0.0
1001
ACAD
1000
AcDbSavedByObjectVersion
1070
     0
  0
VISUALSTYLE
  5
261
102
{ACAD_XDICTIONARY
360
8F2
102
}
102
{ACAD_REACTORS
330
25C
102
}
330
25C
100
AcDbVisualStyle
  2
Basic
 70
     7
 71
     1
 72
     0
 73
     1
 90
        0
 40
-0.6
 41
-30.0
 62
     5
 63
     7
 74
     0
 91
        4
 64
     7
 65
   257
 75
     1
175
     1
 42
1.0
 92
        8
 66
     7
 43
1.0
 76
     1
 77
     6
 78
     2
 67
     7
 79
     5
170
     0
171
     0
290
     0
174
     0
 93
        1
 44
0.0
173
     0
291
     1
 45
0.0
1001
ACAD
1000
AcDbSavedByObjectVersion
1070
     0
  0
VISUALSTYLE
  5
268
102
{ACAD_XDICTIONARY
360
900
102
}
102
{ACAD_REACTORS
330
25C
102
}
330
25C
100
AcDbVisualStyle
  2
Brighten
 70
    12
 71
     2
 72
     2
 73
     0
 90
        0
 40
-0.6
 41
-30.0
 62
     5
 63
     7
 74
     1
 91
        4
 64
     7
 65
   257
 75
     1
175
     1
 42
1.0
 92
        8
 66
     7
 43
1.0
 76
     1
 77
     6
 78
     2
 67
     7
 79
     5
170
     0
171
     0
290
     0
174
     0
 93
        1
 44
50.0
173
     0
291
     1
 45
0.0
1001
ACAD
1000
AcDbSavedByObjectVersion
1070
     0
  0
VISUALSTYLE
  5
26C
102
{ACAD_XDICTIONARY
360
908
102
}
102
{ACAD_REACTORS
330
25C
102
}
330
25C
100
AcDbVisualStyle
  2
ColorChange
 70
    16
 71
     2
 72
     2
 73
     3
 90
        0
 40
-0.6
 41
-30.0
 62
     5
 63
     8
 74
     1
 91
        4
 64
     7
 65
   257
 75
     1
175
     1
 42
1.0
 92
        8
 66
     8
 43
1.0
 76
     1
 77
     6
 78
     2
 67
     7
 79
     5
170
     0
171
     0
290
     0
174
     0
 93
        1
 44
0.0
173
     0
291
     1
 45
0.0
1001
ACAD
1000
AcDbSavedByObjectVersion
1070
     0
  0
VISUALSTYLE
  5
265
102
{ACAD_XDICTIONARY
360
8FA
102
}
102
{ACAD_REACTORS
330
25C
102
}
330
25C
100
AcDbVisualStyle
  2
Conceptual
 70
     9
 71
     3
 72
     2
 73
     0
 90
        0
 40
-0.6
 41
-30.0
 62
     5
 63
     7
 74
     2
 91
        2
 64
     7
 65
   257
 75
     1
175
     1
 42
179.0
 92
        8
 66
     7
 43
1.0
 76
     1
 77
     6
 78
     2
 67
     7
 79
     3
170
     0
171
     0
290
     0
174
     0
 93
        1
 44
0.0
173
     0
291
     0
 45
0.0
1001
ACAD
1000
AcDbSavedByObjectVersion
1070
     0
  0
VISUALSTYLE
  5
267
102
{ACAD_XDICTIONARY
360
8FE
102
}
102
{ACAD_REACTORS
330
25C
102
}
330
25C
100
AcDbVisualStyle
  2
Dim
 70
    11
 71
     2
 72
     2
 73
     0
 90
        0
 40
-0.6
 41
-30.0
 62
     5
 63
     7
 74
     1
 91
        4
 64
     7
 65
   257
 75
     1
175
     1
 42
1.0
 92
        8
 66
     7
 43
1.0
 76
     1
 77
     6
 78
     2
 67
     7
 79
     5
170
     0
171
     0
290
     0
174
     0
 93
        1
 44
-50.0
173
     0
291
     1
 45
0.0
1001
ACAD
1000
AcDbSavedByObjectVersion
1070
     0
  0
VISUALSTYLE
  5
26F
102
{ACAD_XDICTIONARY
360
90E
102
}
102
{ACAD_REACTORS
330
25C
102
}
330
25C
100
AcDbVisualStyle
  2
EdgeColorOff
 70
    22
 71
     2
 72
     2
 73
     0
 90
        0
 40
-0.6
 41
-30.0
 62
     5
 63
     7
 74
     1
 91
        4
 64
     7
 65
   257
 75
     1
175
     1
 42
1.0
 92
        8
 66
     7
 43
1.0
 76
     1
 77
     6
 78
     2
 67
     7
 79
     5
170
     0
171
     0
290
     0
174
     0
 93
        1
 44
0.0
173
     0
291
     1
 45
0.0
1001
ACAD
1000
AcDbSavedByObjectVersion
1070
     0
  0
VISUALSTYLE
  5
26B
102
{ACAD_XDICTIONARY
360
906
102
}
102
{ACAD_REACTORS
330
25C
102
}
330
25C
100
AcDbVisualStyle
  2
Facepattern
 70
    15
 71
     2
 72
     2
 73
     0
 90
        0
 40
-0.6
 41
-30.0
 62
     5
 63
     7
 74
     1
 91
        4
 64
     7
 65
   257
 75
     1
175
     1
 42
1.0
 92
        8
 66
     7
 43
1.0
 76
     1
 77
     6
 78
     2
 67
     7
 79
     5
170
     0
171
     0
290
     0
174
     0
 93
        1
 44
0.0
173
     0
291
     1
 45
0.0
1001
ACAD
1000
AcDbSavedByObjectVersion
1070
     0
  0
VISUALSTYLE
  5
25D
102
{ACAD_XDICTIONARY
360
8EA
102
}
102
{ACAD_REACTORS
330
25C
102
}
330
25C
100
AcDbVisualStyle
  2
Flat
 70
     0
 71
     2
 72
     1
 73
     1
 90
        2
 40
-0.6
 41
30.0
 62
     5
 63
     7
 74
     0
 91
        4
 64
     7
 65
   257
 75
     1
175
     1
 42
1.0
 92
        8
 66
     7
 43
1.0
 76
     1
 77
     6
 78
     2
 67
     7
 79
     5
170
     0
171
     0
290
     0
174
     0
 93
       13
 44
0.0
173
     0
291
     1
 45
0.0
1001
ACAD
1000
AcDbSavedByObjectVersion
1070
     0
  0
VISUALSTYLE
  5
25E
102
{ACAD_XDICTIONARY
360
8EC
102
}
102
{ACAD_REACTORS
330
25C
102
}
330
25C
100
AcDbVisualStyle
  2
FlatWithEdges
 70
     1
 71
     2
 72
     1
 73
     1
 90
        2
 40
-0.6
 41
30.0
 62
     5
 63
     7
 74
     1
 91
        4
 64
     7
 65
   257
 75
     1
175
     1
 42
1.0
 92
        0
 66
   257
 43
1.0
 76
     1
 77
     6
 78
     2
 67
     7
 79
     5
170
     0
171
     0
290
     0
174
     0
 93
       13
 44
0.0
173
     0
291
     1
 45
0.0
1001
ACAD
1000
AcDbSavedByObjectVersion
1070
     0
  0
VISUALSTYLE
  5
25F
102
{ACAD_XDICTIONARY
360
8EE
102
}
102
{ACAD_REACTORS
330
25C
102
}
330
25C
100
AcDbVisualStyle
  2
Gouraud
 70
     2
 71
     2
 72
     2
 73
     1
 90
        2
 40
-0.6
 41
30.0
 62
     5
 63
     7
 74
     0
 91
        4
 64
     7
 65
   257
 75
     1
175
     1
 42
1.0
 92
        0
 66
     7
 43
1.0
 76
     1
 77
     6
 78
     2
 67
     7
 79
     5
170
     0
171
     0
290
     0
174
     0
 93
       13
 44
0.0
173
     0
291
     1
 45
0.0
1001
ACAD
1000
AcDbSavedByObjectVersion
1070
     0
  0
VISUALSTYLE
  5
260
102
{ACAD_XDICTIONARY
360
8F0
102
}
102
{ACAD_REACTORS
330
25C
102
}
330
25C
100
AcDbVisualStyle
  2
GouraudWithEdges
 70
     3
 71
     2
 72
     2
 73
     1
 90
        2
 40
-0.6
 41
30.0
 62
     5
 63
     7
 74
     1
 91
        4
 64
     7
 65
   257
 75
     1
175
     1
 42
1.0
 92
        0
 66
   257
 43
1.0
 76
     1
 77
     6
 78
     2
 67
     7
 79
     5
170
     0
171
     0
290
     0
174
     0
 93
       13
 44
0.0
173
     0
291
     1
 45
0.0
1001
ACAD
1000
AcDbSavedByObjectVersion
1070
     0
  0
VISUALSTYLE
  5
26D
102
{ACAD_XDICTIONARY
360
90A
102
}
102
{ACAD_REACTORS
330
25C
102
}
330
25C
100
AcDbVisualStyle
  2
JitterOff
 70
    20
 71
     2
 72
     2
 73
     0
 90
        0
 40
-0.6
 41
-30.0
 62
     5
 63
     7
 74
     1
 91
        4
 64
     7
 65
   257
 75
     1
175
     1
 42
1.0
 92
       10
 66
     7
 43
1.0
 76
     1
 77
     6
 78
     2
 67
     7
 79
     5
170
     0
171
     0
290
     0
174
     0
 93
        1
 44
0.0
173
     0
291
     1
 45
0.0
1001
ACAD
1000
AcDbSavedByObjectVersion
1070
     0
  0
VISUALSTYLE
  5
26A
102
{ACAD_XDICTIONARY
360
904
102
}
102
{ACAD_REACTORS
330
25C
102
}
330
25C
100
AcDbVisualStyle
  2
Linepattern
 70
    14
 71
     2
 72
     2
 73
     0
 90
        0
 40
-0.6
 41
-30.0
 62
     5
 63
     7
 74
     1
 91
        4
 64
     7
 65
   257
 75
     7
175
     7
 42
1.0
 92
        8
 66
     7
 43
1.0
 76
     1
 77
     6
 78
     2
 67
     7
 79
     5
170
     0
171
     0
290
     0
174
     0
 93
        1
 44
0.0
173
     0
291
     1
 45
0.0
1001
ACAD
1000
AcDbSavedByObjectVersion
1070
     0
  0
VISUALSTYLE
  5
26E
102
{ACAD_XDICTIONARY
360
90C
102
}
102
{ACAD_REACTORS
330
25C
102
}
330
25C
100
AcDbVisualStyle
  2
OverhangOff
 70
    21
 71
     2
 72
     2
 73
     0
 90
        0
 40
-0.6
 41
-30.0
 62
     5
 63
     7
 74
     1
 91
        4
 64
     7
 65
   257
 75
     1
175
     1
 42
1.0
 92
        9
 66
     7
 43
1.0
 76
     1
 77
     6
 78
     2
 67
     7
 79
     5
170
     0
171
     0
290
     0
174
     0
 93
        1
 44
0.0
173
     0
291
     1
 45
0.0
1001
ACAD
1000
AcDbSavedByObjectVersion
1070
     0
  0
VISUALSTYLE
  5
266
102
{ACAD_XDICTIONARY
360
8FC
102
}
102
{ACAD_REACTORS
330
25C
102
}
330
25C
100
AcDbVisualStyle
  2
Realistic
 70
     8
 71
     2
 72
     2
 73
     0
 90
        0
 40
-0.6
 41
-30.0
 62
     5
 63
     7
 74
     1
 91
        0
 64
     7
 65
   257
 75
     1
175
     1
 42
1.0
 92
        8
 66
     8
 43
1.0
 76
     1
 77
     6
 78
     2
 67
     7
 79
     5
170
     0
171
     0
290
     0
174
     0
 93
       13
 44
0.0
173
     0
291
     0
 45
0.0
1001
ACAD
1000
AcDbSavedByObjectVersion
1070
     0
  0
VISUALSTYLE
  5
269
102
{ACAD_XDICTIONARY
360
902
102
}
102
{ACAD_REACTORS
330
25C
102
}
330
25C
100
AcDbVisualStyle
  2
Thicken
 70
    13
 71
     2
 72
     2
 73
     0
 90
        0
 40
-0.6
 41
-30.0
 62
     5
 63
     7
 74
     1
 91
        4
 64
     7
 65
   257
 75
     1
175
     1
 42
1.0
 92
       12
 66
     7
 43
1.0
 76
     1
 77
     6
 78
     2
 67
     7
 79
     5
170
     0
171
     0
290
     0
174
     0
 93
        1
 44
0.0
173
     0
291
     1
 45
0.0
1001
ACAD
1000
AcDbSavedByObjectVersion
1070
     0
  0
DICTIONARYVAR
  5
8D9
102
{ACAD_REACTORS
330
57
102
}
330
57
100
DictionaryVariables
280
     0
  1
1:1
  0
DICTIONARYVAR
  5
8D8
102
{ACAD_REACTORS
330
57
102
}
330
57
100
DictionaryVariables
280
     0
  1
STANDARD
  0
DICTIONARYVAR
  5
8D7
102
{ACAD_REACTORS
330
57
102
}
330
57
100
DictionaryVariables
280
     0
  1
STANDARD
  0
DICTIONARYVAR
  5
58
102
{ACAD_REACTORS
330
57
102
}
330
57
100
DictionaryVariables
280
     0
  1
1
  0
DICTIONARYVAR
  5
8DC
102
{ACAD_REACTORS
330
57
102
}
330
57
100
DictionaryVariables
280
     0
  1
1
  0
DICTIONARYVAR
  5
8DB
102
{ACAD_REACTORS
330
57
102
}
330
57
100
DictionaryVariables
280
     0
  1
0
  0
DICTIONARYVAR
  5
8DA
102
{ACAD_REACTORS
330
57
102
}
330
57
100
DictionaryVariables
280
     0
  1
127
  0
DICTIONARYVAR
  5
8DD
102
{ACAD_REACTORS
330
57
102
}
330
57
100
DictionaryVariables
280
     0
  1
2
  0
DICTIONARY
  5
307
102
{ACAD_REACTORS
330
2FD
102
}
330
2FD
100
AcDbDictionary
281
     1
  0
DICTIONARY
  5
8E5
330
1A1
100
AcDbDictionary
280
     1
281
     1
  3
ACAD_XREC_ROUNDTRIP
360
8E6
  0
DICTIONARY
  5
8CE
330
1A0
100
AcDbDictionary
280
     1
281
     1
  3
ACAD_XREC_ROUNDTRIP
360
8E4
  3
ADSK_XREC_LAYOUTTHUMBNAIL
360
8CF
  0
DICTIONARY
  5
24D
330
24C
100
AcDbDictionary
280
     1
281
     1
  3
ACAD_XREC_ROUNDTRIP
360
8E8
  3
BUMPTILE
360
24F
  3
DIFFUSETILE
360
24E
  3
OPACITYTILE
360
252
  3
REFLECTIONTILE
360
251
  3
REFRACTIONTILE
360
253
  3
SPECULARTILE
360
250
  0
DICTIONARY
  5
245
330
244
100
AcDbDictionary
280
     1
281
     1
  3
ACAD_XREC_ROUNDTRIP
360
8E7
  3
BUMPTILE
360
247
  3
DIFFUSETILE
360
246
  3
OPACITYTILE
360
24A
  3
REFLECTIONTILE
360
249
  3
REFRACTIONTILE
360
24B
  3
SPECULARTILE
360
248
  0
DICTIONARY
  5
255
330
254
100
AcDbDictionary
280
     1
281
     1
  3
ACAD_XREC_ROUNDTRIP
360
8E9
  3
BUMPTILE
360
257
  3
DIFFUSETILE
360
256
  3
OPACITYTILE
360
25A
  3
REFLECTIONTILE
360
259
  3
REFRACTIONTILE
360
25B
  3
SPECULARTILE
360
258
  0
DICTIONARY
  5
8DE
330
272
100
AcDbDictionary
280
     1
281
     1
  3
ACAD_ROUNDTRIP_2008_TABLESTYLE_CELLSTYLEMAP
360
8DF
  3
ACAD_XREC_ROUNDTRIP
360
910
  0
DICTIONARY
  5
8F4
330
262
100
AcDbDictionary
280
     1
281
     1
  3
ACAD_XREC_ROUNDTRIP
360
8F5
  0
DICTIONARY
  5
8F8
330
264
100
AcDbDictionary
280
     1
281
     1
  3
ACAD_XREC_ROUNDTRIP
360
8F9
  0
DICTIONARY
  5
8F6
330
263
100
AcDbDictionary
280
     1
281
     1
  3
ACAD_XREC_ROUNDTRIP
360
8F7
  0
DICTIONARY
  5
8F2
330
261
100
AcDbDictionary
280
     1
281
     1
  3
ACAD_XREC_ROUNDTRIP
360
8F3
  0
DICTIONARY
  5
900
330
268
100
AcDbDictionary
280
     1
281
     1
  3
ACAD_XREC_ROUNDTRIP
360
901
  0
DICTIONARY
  5
908
330
26C
100
AcDbDictionary
280
     1
281
     1
  3
ACAD_XREC_ROUNDTRIP
360
909
  0
DICTIONARY
  5
8FA
330
265
100
AcDbDictionary
280
     1
281
     1
  3
ACAD_XREC_ROUNDTRIP
360
8FB
  0
DICTIONARY
  5
8FE
330
267
100
AcDbDictionary
280
     1
281
     1
  3
ACAD_XREC_ROUNDTRIP
360
8FF
  0
DICTIONARY
  5
90E
330
26F
100
AcDbDictionary
280
     1
281
     1
  3
ACAD_XREC_ROUNDTRIP
360
90F
  0
DICTIONARY
  5
906
330
26B
100
AcDbDictionary
280
     1
281
     1
  3
ACAD_XREC_ROUNDTRIP
360
907
  0
DICTIONARY
  5
8EA
330
25D
100
AcDbDictionary
280
     1
281
     1
  3
ACAD_XREC_ROUNDTRIP
360
8EB
  0
DICTIONARY
  5
8EC
330
25E
100
AcDbDictionary
280
     1
281
     1
  3
ACAD_XREC_ROUNDTRIP
360
8ED
  0
DICTIONARY
  5
8EE
330
25F
100
AcDbDictionary
280
     1
281
     1
  3
ACAD_XREC_ROUNDTRIP
360
8EF
  0
DICTIONARY
  5
8F0
330
260
100
AcDbDictionary
280
     1
281
     1
  3
ACAD_XREC_ROUNDTRIP
360
8F1
  0
DICTIONARY
  5
90A
330
26D
100
AcDbDictionary
280
     1
281
     1
  3
ACAD_XREC_ROUNDTRIP
360
90B
  0
DICTIONARY
  5
904
330
26A
100
AcDbDictionary
280
     1
281
     1
  3
ACAD_XREC_ROUNDTRIP
360
905
  0
DICTIONARY
  5
90C
330
26E
100
AcDbDictionary
280
     1
281
     1
  3
ACAD_XREC_ROUNDTRIP
360
90D
  0
DICTIONARY
  5
8FC
330
266
100
AcDbDictionary
280
     1
281
     1
  3
ACAD_XREC_ROUNDTRIP
360
8FD
  0
DICTIONARY
  5
902
330
269
100
AcDbDictionary
280
     1
281
     1
  3
ACAD_XREC_ROUNDTRIP
360
903
  0
XRECORD
  5
8E6
102
{ACAD_REACTORS
330
8E5
102
}
330
8E5
100
AcDbXrecord
280
     1
102
SHADEPLOT
 70
     0
102
SHADEPLOTRESLEVEL
 70
     2
102
SHADEPLOTCUSTOMDPI
 70
   300
  0
XRECORD
  5
8E4
102
{ACAD_REACTORS
330
8CE
102
}
330
8CE
100
AcDbXrecord
280
     1
102
SHADEPLOT
 70
     0
102
SHADEPLOTRESLEVEL
 70
     2
102
SHADEPLOTCUSTOMDPI
 70
   300
  0
XRECORD
  5
8CF
102
{ACAD_REACTORS
330
8CE
102
}
330
8CE
100
AcDbXrecord
280
     1
310
2800000000010000A6000000010008000000000000A60000000000000000000000010000000000003333330000000000FFFFFF000000000000000000000000000000000000000000000000000000000000000000330000006600000099000000CC000000FF00000000330000333300006633000099330000CC330000FF3300
310
0000660000336600006666000099660000CC660000FF66000000990000339900006699000099990000CC990000FF99000000CC000033CC000066CC000099CC0000CCCC0000FFCC000000FF000033FF000066FF000099FF0000CCFF0000FFFF000000003300330033006600330099003300CC003300FF003300003333003333
310
33006633330099333300CC333300FF33330000663300336633006666330099663300CC663300FF66330000993300339933006699330099993300CC993300FF99330000CC330033CC330066CC330099CC3300CCCC3300FFCC330000FF330033FF330066FF330099FF3300CCFF3300FFFF330000006600330066006600660099
310
006600CC006600FF00660000336600333366006633660099336600CC336600FF33660000666600336666006666660099666600CC666600FF66660000996600339966006699660099996600CC996600FF99660000CC660033CC660066CC660099CC6600CCCC6600FFCC660000FF660033FF660066FF660099FF6600CCFF6600
310
FFFF660000009900330099006600990099009900CC009900FF00990000339900333399006633990099339900CC339900FF33990000669900336699006666990099669900CC669900FF66990000999900339999006699990099999900CC999900FF99990000CC990033CC990066CC990099CC9900CCCC9900FFCC990000FF99
310
0033FF990066FF990099FF9900CCFF9900FFFF99000000CC003300CC006600CC009900CC00CC00CC00FF00CC000033CC003333CC006633CC009933CC00CC33CC00FF33CC000066CC003366CC006666CC009966CC00CC66CC00FF66CC000099CC003399CC006699CC009999CC00CC99CC00FF99CC0000CCCC0033CCCC0066CC
310
CC0099CCCC00CCCCCC00FFCCCC0000FFCC0033FFCC0066FFCC0099FFCC00CCFFCC00FFFFCC000000FF003300FF006600FF009900FF00CC00FF00FF00FF000033FF003333FF006633FF009933FF00CC33FF00FF33FF000066FF003366FF006666FF009966FF00CC66FF00FF66FF000099FF003399FF006699FF009999FF00CC
310
99FF00FF99FF0000CCFF0033CCFF0066CCFF0099CCFF00CCCCFF00FFCCFF0000FFFF0033FFFF0066FFFF0099FFFF00CCFFFF00FFFFFF00000000000D0D0D001A1A1A00282828003535350043434300505050005D5D5D006B6B6B00787878008686860093939300A1A1A100AEAEAE00BBBBBB00C9C9C900D6D6D600E4E4E400
310
F1F1F100FFFFFF0000000000000000000000000000000000000000000000000000000000000000000000000000000000E6E6E6E6E6E6E6E6E6E6E6E6E6E6E6E6E6E6E6E6E6E6E6E6E6E6E6E6E6E6E6E6E6E6E6E6E6E6E6E6E6E6E6E6E6E6E6E6E6E6E6E6E6E6E6E6E6E6E6E6E6E6E6E6E6E6E6E6E6E6E6E6E6E6E6E6E6E6E6
310
E6E6E6E6E6E6E6E6E6E6E6E6E6E6E6E6E6E6E6E6E6E6E6E6E6E6E6E6E6E6E6E6E6E6E6E6E6E6E6E6E6E6E6E6E6E6E6E6E6E6E6E6E6E6E6E6E6E6E6E6E6E6E6E6E6E6E6E6E6E6E6E6E6E6E6E6E6E6E6E6E6E6E6E6E6E6E6E6E6E6E6E6E6E6E6E6E6E6E6E6E6E6E6E6E6E6E6E6E6E6E6E6E6E6E6E6E6E6E6E6E6E6E6E6E6E6E6
310
E6E6E6E6E6E6E6E6E6E6E6E6E6E6E6E6E6E6E6E6E6E6E6E6E6E6E6E6E6E6E6E6E6E6E6E6E6E6E6E6E6E6E6E6E6E6E6E6E6E6E6E6E6E6E6E6E6E6E6E6E6E6E6E6767676767676767676767676767676767676767676767676767676767676767676767676767676767676767676767676767676767676767676767676767676
310
76767676767676767676767676767676767676767676767676767676767676767676767676767676767676767676767676767676767676767676767676767676767676767676767676767676767676767676767676767676767676767676767676767676767676767676767676767676767676767676767676767676767676
310
7676767676767676767676767676767676767676767676767676767676767676767676767676E6E6E6E6E6E6E6E6E6E6E6E6E6E6E6E6E6E6E6E6E6E6E6E6E6E6E6E676E6E6E6E6E6E6E6E6E6E6E6E6E6E6E6E6E6E6E6E6E6E6E6E6E6E6E6E6E6E6E6E6E6E6E6E6E6E6E6E6E6E6E6E6E6E6E6E6E6E6E6E6E6E6E6E6E6E6E6E6
310
E6E6E6E6E6E6E6E6E6E6E6E6E6E6E6E6E6E6E6E6E6E6E6E6E6E6E6E6E6E6E6E6E6E6E6E6E6E6E6E6E6E6E6E6E6E6E6E6E6E6E6E6E6E6E6E6E6E6E6E6E6E6E6E6E6E6E6E6E6E6E6E6E6E6E6E6E6E6E6E6E6E6E6E6E6E6E6E6E6E6E6E6E6E6E6E6E6E6E6E6E6E6E6E6E6E6E6E6E6E6E6E6E6E6E6E6E6E6E6E6E6E6E6E6E6E6E6
310
E6E6E6E6E6E6E6E6E6E6E6E6E6E6E6E6E6E6E6E6E6E6E6E6E6E6E6E6E6E6E6E6E6E6E6E6E6E6E676E6E6E6E6E6E6E6E6E6E6E6E6E6E6E6E6E6E6E6E6E6E6E6E6E6E6E6E676E6E6E6E6E6E6E6E6E6E6E6E6E6E6E6E6E6E6E6E6E6E6E6E6E6E6E6E6E6E6E6E6E6E6E6E6E6E6E6E6E6E6E6E6E6E6E6E6E6E6E6E6E6E6E6E6E6E6
310
E6E6E6E6E6E6E6E6E6E6E6E6E6E6E6E6E6E6E6E6E6E6E6E6E6E6E6E6E6E6E6E6E6E6E6E6E6E6E6E6E6E6E6E6E6E6E6E6E6E6E6E6E6E6E6E6E6E6E6E6E6E6E6E6E6E6E6E6E6E6E6E6E6E6E6E6E6E6E6E6E6E6E6E6E6E6E6E6E6E6E6E6E6E6E6E6E6E6E6E6E6E6E6E6E6E6E6E6E6E6E6E6E6E6E6E6E6E6E6E6E6E6E6E6E6E6E6
310
E6E6E6E6E6E6E6E6E6E6E6E6E6E6E6E6E6E6E6E6E6E6E6E6E6E6E6E6E6E6E6E6E6E6E6E6E6E6E6E6E676E6E6E6E6E6E6E6E6E6E6E6E6E6E6E6E6E6E6E6E6E6E6E6E6E6E6E6E676E6E6E6E6E6E6E6E6E6E6E6E6E6E6E6E6E6E6E6E6E6E6E6E6E6E6E6E6E6E6E6E6E6E6E6E6E6E6E6E6E6E6E6E6E6E6E6E6E6E6E6E6E6E6E6E6
310
E6E6E6E6E6E6E6E6E6E6E6E6E6E6E6E6E6E6E6E6E6E6E6E6E6E6E6E6E6E6E6E6E6E6E6E6E6E6E6E6E6E6E6E6E6E6E6E6E6E6E6E6E6E6E6E6E6E6E6E6E6E6E6E6E6E6E6E6E6E6E6E6E6E6E6E6E6E6E6E6E6E6E6E6E6E6E6E6E6E6E6E6E6E6E6E6E6E6E6E6E6E6E6E6E6E6E6E6E6E6E6E6E6E6E6E6E6E6E6E6E6E6E6E6E6E6E6
310
E6E6E6E6E6E6E6E6E6E6E6E6E6E6E6E6E6E6E6E6E6E6E6E6E6E6E6E6E6E6E6E6E6E6E6E6E6E6E6E6E6E6E676E6E6E6E6E6E6E6E6E6E6E6E6E6E6E6E6E6E6E6E6E6E6E6E6E6E6E6E676E6E6E6E6E6E6E6E6E6E6E6E6E6E6E6E6E6E6E6E6E6E6E6E6E6E6E6E6E6E6E6E6E6E6E6E6E6E6E6E6E6E6E6E6E6E6E6E6E6E6E6E6E6E6
310
E6E6E6E6E6E6E6E6E6E6E6E6E6E6E6E6E6E6E6E6E6E6E6E6E6E6E6E6E6E6E6E6E6E6E6E6E6E6E6E6E6E6E6E6E6E6E6E6E6E6E6E6E6E6E6E6E6E6E6E6E6E6E6E6E6E6E6E6E6E6E6E6E6E6E6E6E6E6E6E6E6E6E6E6E6E6E6E6E6E6E6E6E6E6E6E6E6E6E6E6E6E6E6E6E6E6E6E6E6E6E6E6E6E6E6E6E6E6E6E6E6E6E6E6E6E6E6
310
E6E6E6E6E6E6E6E6E6E6E6E6E6E6E6E6E6E6E6E6E6E6E6E6E6E6E6E6E6E6E6E6E6E6E6E6E6E6E6E6E6E6E6E6E676E6E6E6E6E6E6E6E6E6E6E6E6E6E6E6E6E6E6E6E6E6E6E6E6E6E6E6E676E6E6E6E6E6E6E6E6E6E6E6E6E6E6E6E6E6E6E6E6E6E6E6E6E6E6E6E6E6E6E6E6E6E6E6E6E6E6E6E6E6E6E6E6E6E6E6E6E6E6E6E6
310
E6E6E6E6E6E6E6E6E6E6E6E6E6E6E6E6E6E6E6E6E6E6E6E6E6E6E6E6E6E6E6E6E6E6E6E6E6E6E6E6E6E6E6E6E6E6E6E6E6E6E6E6E6E6E6E6E6E6E6E6E6E6E6E6E6E6E6E6E6E6E6E6E6E6E6E6E6E6E6E6E6E6E6E6E6E6E6E6E6E6E6E6E6E6E6E6E6E6E6E6E6E6E6E6E6E6E6E6E6E6E6E6E6E6E6E6E6E6E6E6E6E6E6E6E6E6E6
310
E6E6E6E6E6E6E6E6E6E6E6E6E6E6E6E6E6E6E6E6E6E6E6E6E6E6E6E6E6E6E6E6E6E6E6E6E6E6E6E6E6E6E6E6E6E6E676E6E6E6E6E6E6E6E6E6E6E6E6E6E6E6E6E6E6E6E6E6E6E6E6E6E6E6E676E6E6E6E6E6E6E6E6E6E6E6E6E6E6E6E6E6E6E6E6E6E6E6E6E6E6E6E6E6E6E6E6E6E6E6E6E6E6E6E6E6E6E6E6E6E6E6E6E6E6
310
E6E6E6E6E6E6E6E6E6E6E6E6E6E6E6E6E6E6E6E6E6E6E6E6E6E6E6E6E6E6E6E6E6E6E6E6E6E6E6E6E6E6E6E6E6E6E6E6E6E6E6E6E6E6E6E6E6E6E6E6E6E6E6E6E6E6E6E6E6E6E6E6E6E6E6E6E6E6E6E6E6E6E6E6E6E6E6E6E6E6E6E6E6E6E6E6E6E6E6E6E6E6E6E6E6E6E6E6E6E6E6E6E6E6E6E6E6E6E6E6E6E6E6E6E6E6E6
310
E6E6E6E6E6E6E6E6E6E6E6E6E6E6E6E6E6E6E6E6E6E6E6E6E6E6E6E6E6E6E6E6E6E6E6E6E6E6E6E6E6E6E6E6E6E6E6E6E676E6E6E6E6E6E6E6E6E6E6E6E6E6E6E6E6E6E6E6E6E6E6E6E6E6E6E6E676E6E6E6E6E6E6E67676767676767676767676767676767676767676767676767676767676767676767676767676767676
310
76767676767676767676767676767676767676767676767676767676767676767676767676767676767676767676767676767676767676767676767676767676767676767676767676767676767676767676767676767676767676767676767676767676767676767676767676767676767676767676767676767676767676
310
7676767676767676767676767676767676767676767676767676767676767676767676767676767676767676E6E6E6E6E6E6E676E6E6E6E6E6E6E6E6E6E6E6E6E6E6E6E6E6E6E6E6E6E6E6E6E6E6E6E676E6E6E6E6E6E6E676E6E6E6E6E6E6E6E6E6E6E6E6E6E6E6E6E6E6E6E6E6E6E6E6E6E6E676E6E6E6E6E6E6E6E6E6E6
310
E6E6E6E6E6E6E6E6E6E6E6E6E6E6E6E6E6E6E6E6E6E6E6E676E6E6E6E6E6E6E6E6E6E6E6E6E6E6E6E6E6E6E6E6E6E6E6E6E6E6E6E6E6E6E6E6E6E676E6E6E6E6E6E6E6E6E6E6E6E6E6E6E6E6E6E6E6E6E6E6E6E6E6E6E6E6E6E6E6E6E6E676E6E6E6E6E6E6E6E6E6E6E6E6E6E6E6E6E6E6E6E6E6E6E6E6E6E6E6E6E6E6E6E6
310
E6E6E6E6E6E6E6E6E6E6E6E6E6E6E6E6E6E6E6E6E6E6E6E6E6E6E6E6E6E6E6E6E6E6E6E6E6E6767676E6E6E6E676E6E6E6E6E6E6E676E6E6E6E6E6E6E6E6E6E6E6E6E6E6E6E6E6E6E6E6E6E6E6E6E6E6E6E676E6E6E6E6E6E6E676E6E6E6E6E6E6E6E6E6E676E6E6E6E6E6E6E6E6E6E6E6E6E6E6E6E676E6E6E6E6E6E6E6E6
310
E6E6E6E6E6E6E6E6E676E6E6E6E6E6E6E6E6E6E6E6E6E6E6E6E676E6E6E6E6E6E6E6E6E6E6E6E6E6E6E6E6E676E6E6E6E6E6E6E6E6E6E6E6E6E6E6E6E676E6E6E6E6E6E6E6E6E6E6E6E6E6E6E6E6E676E6E6E6E6E6E6E6E6E6E6E6E6E6E6E6E67676E6E6E6E6E6E6E6E6E6E6E6E6E6E6E6E676E6E6E6E6E6E6E6E6E6E6E6E6
310
E6E6E6E6E6E6E6E6E6E6E6E6E6E6E6E6E6E6E6E6E6E6E6E6E6E6E6E6E6E6E6E6E6E6E6E6E6E6E6E6767676E676E6E676E6E6E6E6E6E6E676E6E6E6E6E6E6E6E6E6E6E6E6E6E6E6E6E6E6E6E6E6E6E6E6E6E6E6E676E6E6E6E6E6E6E676E6E6E6E6E6E6E6E67676767676767676767676767676767676767676767676767676
310
76767676767676767676767676767676767676767676767676767676767676767676767676767676767676767676767676767676767676767676767676767676767676767676767676767676767676767676767676767676767676767676767676767676767676767676767676767676767676767676767676767676767676
310
767676767676767676767676767676767676767676767676767676767676767676767676767676767676767676767676E676E6E6E6E6E6E6E676E6E6E6E6E6E6E6E6E6E6E6E6E6E6E6E6E6E6E6E6E6E6E6E6E6E6E6E676E6E6E6E6E6E6E676E6E6E6E6E6E6E6E6E67676E6E6E6E6E6E6E6E6E6E6E6E6E6E6E6E6E6E6E6E6E6
310
E6E6E6E6E6E6E6E6E6E6E6E6E6E6E6E6E6E6E6E6E6E6E6E6E6E6E6E6E6E6E6E6E6E6E6E6E6E6E6E6E6E6E6E6E6E6E6E6E6E6E6E6E6E6E6E6E6E6E6E6E6E6E6E6E6E6E6E6E6E6E6E6E6E6E6E6E6E676161616161616161616161616161616161616E6E6E6E6E6E6E6E6E6E6E6E6E6E6E6E6E6E6E6E6E6E6E676161616161616
310
16161616161616161676E616161616E6E6E6E6E6E6E6E6E6E6E6E6E6E6E6E6E6E6E6E6E6E6E6E6E6E6E6E6E6E6E6E6E676E6E676E6E6E6E6E6E6E676E6E6E6E6E6E6E6E6E6E6E6E6E6E6E6E6E6E6E6E6E6E6E6E6E6E6E6E676E6E6E6E6E6E6E676E6E6E6E6E6E6E6E6E67676E6E6E6E6E6E6E6E6E6E6E6E6E6E6E6E6E6E6E6
310
E6E6E6E6E6E6E6E6E6E6E6E6E6E6E6E6E6E6E6E6E6E6E6E6E6E6E6E6E6E6E6E6E6E6E6E6E6E6E6E6E6E6E6E6E6E6E6E6E6E6E6E6E6E6E6E6E6E6E6E6E6E6E6E6E6E6E6E6E6E6E6E6E6E6E6E6E6E6E6E676161616E616161616E6E6E6E6E616161616E6E6E6E6E6E6E6E6E6E6E6E6E6E6E6E6E6E6E6E6E6E6E6E67616161616
310
16161616161616161616E676E616161616E6E6E6E6E6E6E6E6E6E6E6E6E6E6E6E6E6E6E6E6E6E6E6E6E6E6E6E6E6E6E6E6E676E6E676E6E6E6E6E6E6E676E6E6E6E6E6E6E6E6E6E6E6E6E6E6E6E6E6E6E6E6E6E6E6E6E6E6E6E676E6E6E6E6E6E6E676E6E6E6E6E6E6E6E6E67676E6E6E6E6E6E6E6E6E6E6E6E6E6E6E6E6E6
310
E6E6E6E6E6E6E6E6E6E6E6E6E6E6E6E6E6E6E6E6E6E6E6E6E6E6E6E6E6E6E6E6E6E6E6E6E6E6E6E6E6E6E6E6E6E6E6E6E6E6E6E6E6E6E6E6E6E6E6E6E6E6E6E6E6E6E6E6E6E6E6E6E6E6E6E6E6E6E6E6E6E6767676767676767676767676767676767676767676767676767676767676767676767676767676767676767676
310
7676767676767676767676767676767676767676767676767676767676767676767676767676767676767676767676767676767676E6E676E6E6E6E6E6E6E676E6E6E6E6E6E6E6E6E6E6E6E6E6E6E6E6E6E6E6E6E6E6E6E6E6E6E6E676E6E6E6E6E6E6E676E6E6E6E6E6E6E6E6E67676E6E6E6E6E6E6E6E6E6E6E6E6E6E6E6
310
E6E6E6E6E6E6E6E6E6E6E6E6E6E6E6E6E6E6E6E6E6E6E6E6E6E6E6E6E6E6E6E6E6E6E6E6E6E6E6E6E6E6E6E6E6E6E6E6E6E6E6E6E6E6E6E6E6E6E6E6E6E6E6E6E6E6E6E6E6E6E6E6E6E6E6E6E6E6E6E6E6E6E6E676676767676767676767676767E6E6E6E6E6E6E6E6E6E6E6E6E6E6E6E6E6E6E6E6E6E6E6E6E6E6E6E6E676
310
E6E6E6E6E6E6E6E6E6E6E6E6E6E6E676E6E6676767676767676767676767E6E6E6E6E6E6E6E6E6E6E6E6E6E6E6E6E6E6E6E6E6E6E6E676E6E676E6E6E6E6E6E6E676E6E6E6E6E6E6E6E6E6E6E6E6E6E6E6E6E6E6E6E6E6E6E6E6E6E6E6E676E6E6E6E6E6E6E676E6E6E6E6E6E6E6E6E67676E6E6E6E6E6E6E6E6E6E6E6E6E6
310
E6E6E6E6E6E6E6E6E6E6E6E6E6E6E6E6E6E6E6E6E6E6E6E6E6E6E6E6E6E6E6E6E6E6E6E6E6E6E6E6E6E6E6E6E6E6E6E6E6E6E6E6E6E6E6E6E6E6E6E6E6E6E6E6E6E6E6E6E6E6E6E6E6E6E6E6E6E6E6E6E6E6E6E6E6E676676767E6676767676767676767E6E6E6E6E6E6E6E6E6E6E6E6E6E6E6E6E6E6E6E6E6E6E6E6E6E6E6
310
E676E6E6E6E6E6E6E6E6E6E6E6E6E6E6E676E6E66767E6676767E6676767E667E6E6E6E6E6E6E6E6E6E6E6E6E6E6E6E6E6E6E6E6E6E6E6E676E6E676E6E6E6E6E6E6E676E6E6E6E6E6E6E6E6E6E6E6E6E6E6E6E6E6E6E6E6E6E6E6E6E6E6E6E676E6E6E6E6E6E6E676E6E6E6E6E6E6E6E6E67676E6E6E6E6E6E6E6E6E6E6E6
310
E6E6E6E6E6E6E6E6E6E6E6E6E6E6E6E6E6E6E6E6E6E6E6E6E6E6E6E6E6E6E6E6E6E6E6E6E6E6E6E6E6E6E6E6E6E6E6E6E6E6E6E6E6E6E6E6E6E6E6E6E6E6E6E6E6E6E6E6E6E6E6E6E6E6E6E6E6E6E6E6E6E6E6E6E6E6E6E67667E667E66767E66767676767E6E6E6E6E6E6E6E6E6E6E6E6E6E6E6E6E6E6E6E6E6E6E6E6E6E6
310
E6E6E67676767676767676767676767676767676E6E66767E6676767E6676767E667E6E6E6E6E6E6E6E6E6E6E6E6E6E6E6E6E6E6E6E6E6E6E6E676E6E676E6E6E6E6E6E6E676E6E6E6E6E6E6E6E6E6E6E6E6E6E6E6E6E6E6E6E6E6E6E6E6E6E6E6E676E6E6E6E6E6E6E676E6E6E6E6E6E6E6E6E67676E6E6E6E6E6E6E6E6E6
310
E6E6E6E6E6E6E6E6E6E6E6E6E6E6E6E6E6E6E6E6E6E6E6E6E6E6E6E6E6E6E6E6E6E6E6E6E6E6E6E6E6E6E6E6E6E6E6E6E6E6E6E6E6E6E6E6E6E6E6E6E6E6E6E6E6E6E6E6E6E6E6E6E6E6E6E6E6E6E6E6E6E6E6E6E6E6E6E6E6E6766767676767676767676767676767676767676767E6E6E6E6E6E6E6E6E6E6E6E6E6E6E6E6
310
E6E6E6E6E67616161676E6E6E6E6E676E6E6E6E6E676E6E616161616161616E6E6E6E6E6E6E6E6E6E6E6E6E6E6E6E6E6E6E6E6E6E6E6E6E6E6E6E6E676E6E676E6E6E6E6E6E6E676E6E6E6E6E6E6E6E6E6E6E6E6E6E6E6E6E6E6E6E6E6E6E6E6E6E6E6E676E6E6E6E6E6E6E676E6E6E6E6E6E6E6E6E67676E6E6E6E6E6E6E6
310
E6E6E6E6E6E6E6E6E6E6E6E6E6E6E6E6E6E6E6E6E6E6E6E6E6E6E6E6E6E6E6E6E6E6E6E6E6E6E6E6E6E6E6E6E6E6E6E6E6E6E6E6E6E6E6E6E6E6E6E6E6E6E6E6E6E6E6E6E6E6E6E6E6E6E6E6E6E6E6E6E6E6E6E6E6E6E6E6E6E6E6E6766767676767676767676767676767676767676767E6E6E6E6E6E6E6E6E6E6E6E6E6E6
310
E6E6E6E6E6E6E67616767628282828282876767676767676767676767676767676767676767676767676767676767676767676767676767676767676767676E6E676E6E6E6E6E6E6E676E6E6E6E6E6E6E6E6E6E6E6E6E6E6E6E6E6E6E6E6E6E6E6E6E6E6E6E676E6E6E6E6E6E6E676E6E6E6E6E6E6E6E6E67676E6E6E6E6E6
310
E6E6E6E6E6E6E6E6E6E6E6E6E6E6E6E6E6E6E6E6E6E6E6E6E6E6E6E6E6E6E6E6E6E6E6E6E6E6E6E6E6E6E6E6E6E6E6E6E6E6E6E6E6E6E6E6E6E6E6E6E6E6E6E6E6E6E6E6E6E6E6E6E6E6E6E6E6E6E6E6E6E6E6E6E6E6E6E6E6E6E6E6E6E6766767676767E6E6E6676767E667E6E6E667E667E6E6E6E6E6E6E6E6E6E6E6E6E6
310
E6E6E6E6E6E6E6E6E6761616E628282828282876282828282876E6E6E6E6E6E6E6E6E6E6E6E6E6E6E6E6E6E6E6E6E628282828282828E6E6E6E6E6E6E6E6E6E676E6E676E6E6E6E6E6E6E676E6E6E6E6E6E6E6E6E6E6E6E6E6E6E6E6E6E6E6E6E6E6E6E6E6E6E6E676E6E6E6E6E6E6E676E6E6E6E6E6E6E6E6E67676E6E6E6
310
E6E6E6E6E6E6E6E6E6E6E6E6E6E6E6E6E6E6E6E6E6E6E6E6E6E6E6E6E6E6E6E6E6E6E6E6E6E6E6E6E6E6E6E6E6E6E6E6E6E6E6E6E6E6E6E6E6E6E6E6E6E6E6E6E6E6E6E6E6E6E6E6E6E6E6E6E6E6E6E6E6E6E6E6E6E6E6E6E6E6E6E6E6E6E6E676676767676767676767676767676767676767676767676767676767E6E6E6
310
E6E6E6E6E6E6E6E6E6E6E67616167676767676767676767676767676E6E6E6E6E6E6E6E6F5F5F5F5F5F5F5F5F5F5F5F5E628282828282828E6E6E6E6E6E6E6E6E6E676E6E676E6E6E6E6E6E6E676E6E6E6E6E6E6E6E6E6E6E6E6E6E6E6E6E6E6E6E6E6E6E6E6E6E6E6E676E6E6E6E6E6E6E676E6E6E6E6E6E6E6E6E67676E6
310
E6E6E6E6E6E6E6E6E6E6E6E6E6E6E6E6E6E6E6E6E6E6E6E6E6E6E6E6E6E6E6E6E6E6E6E6E6E6E6E6E6E6E6E6E6E6E6E6E6E6E6E6E6E6E6E6E6E6E6E6E6E6E6E6E6E6E6E6E6E6E6E6E6E6E6E6E6E6E6E6E6E6E6E6E6E6E6E6E6E6E6E6E6E6E6E6E6E67667676767671667676767E667E66767E66767E6E667E667E6676767E6
310
E6E6E6E6E6E6E6E6E6E6E6E6E6761616E628282828282876282828282876E6E6E6E6E6BEBEBEBEF5F5F5F5F5F5F5F5F5F5F5E628282828282828E6E6E6E6E6E6E6E6E6E676E6E676E6E6E6E6E6E6E676E6E6E6E6E6E6E6E6E6E6E6E6E6E6E6E6E6E6E6E6E6E6E6E6E6E6E6E676E6E6E6E6E6E6E676E6E6E6E6E6E6E6E6E676
310
76E6E6E6E6E6E6E6E6E6E6E6E6E6E6E6E6E6E6E6E6E6E6E6E6E6E6E6E6E6E6E6E6E6E6E6E6E6E6E6E6E6E6E6E6E6E6E6E6E6E6E6E6E6E6E6E6E6E6E6E6E6E6E6E6E6E6E6E6E6E6E6E6E6E6E6E6E6E6E6E6E6E6E6E6E6E6E6E6E6E6E6E6E6E6E6E6E6E6E67616161616161616E6E6E6E6E6E6E6E6E6E6E6E6E6E6E6E6E6E6E6
310
E6E6E6E6E6E6E6E6E6E6E6E6E6E6E67616767676767676767676767676767676E6E6E6E6E6BEBEBEBEF5F5F5F5F5F5F5F5F5F5F5E6282828282828282828E6E6E6E6E6E6E6E676E6E676E6E6E6E6E6E6E676E6E6E6E6E6E6E6E6E6E6E6E6E6E6E6E6E6E6E6E6E6E6E6E6E6E6E6E676E6E6E6E6E6E6E676E6E6E6E6E6E6E6E6
310
E67676E6E6E6E6E6E6E6E6E6E6E6E6E6E6E6E6E6E6E6E6E6E6E6E6E6E6E6E6E6E6E6E6E6E6E6E6E6E6E6E6E6E6E6E6E6E6E6E6E6E6E6E6E6E6E6E6E6E6E6E6E6E6E6E6E6E6E6E6E6E6E6E6E6E6E6E6E6E6E6E6E6E6E6E6E6E6E6E6E6E6E6E6E6E6E6E6E6E6E67616E6E6E6E6E6E6E6E6E6E6E6E6E6E6E6E6E6E6E6E6E6E6E6
310
E6E6E6E6E6E6E6E6E6E6E6E6E6E6E6E6E676E6E6E67616161616E676E6161616E676E6E6E6E6E6BEBEBEBEE6E6E6E6E6E6E6E6E6E6E6E667676767676767676767676767E6E6E6E676E6E676E6E6E6E6E6E6E676E6E6E6E6E6E6E6E6E6E6E6E6E6E6E6E6E6E6E6E6E6E6E6E6E6E6E6E676E6E6E6E6E6E6E676E6E6E6E6E6E6
310
E6E6E67676E6E6E6E6E6E6E6E6E6E6E6E6E6E6E6E6E6E6E6E6E6E6E6E6E6E6E6E6E6E6E6E6E6E6E6E6E6E6E6E6E6E6E6E6E6E6E6E6E6E6E6E6E6E6E6E6E6E6E6E6E6E6E6E6E6E6E6E6E6E6E6E6E6E6E6E6E6E6E6E6E6E6E6E6E6E6E6E6E6E6E6E6E6E6E6E6E6E6E67676767676767676767676767676767676767676767676
310
767676767676767676767676767676767676767676767676767676767676767676767676767676767676767676767676767676767676767676767676767676767676767676767676767676E6E676E6E6E6E6E6E6E676E6E6E6E6E6E6E6E6E6E6E6E6E6E6E6E6E6E6E6E6E6E6E6E6E6E6E6E676E6E6E6E6E6E6E676E6E6E6E6
310
E6E6E6E6E67676E6E6E6E6E6E6E6E6E6E6E6E6E6E6E6E6E6E6E6E6E6E6E6E6E6E6E6E6E6E6E6E6E6E6E6E6E6E6E6E6E6E6E6E6E6E6E6E6E6E6E6E6E6E6E6E6E6E6E6E6E6E6E6E6E6E6E6E6E6E6E6E6E6E6E6E6E6E6E6E6E6E6E6E6E6E6E6E6E6E6E6E6E6E6E6E6E6E6E6E6E6E6E6E6E6E6E6E6E6E6E6E6E6E6E6E6E6E6E6E6
310
E6E6E6E6E6E6E6E6E6E6E6E6E6E6E6E6E6E6E6E6E6E6E6E6E6E6E6E6E6E6E6E6E6E6E6E6E6E6E6E6E6E6E6E6E6E6E6E6E6E6E6E6E6E6E6E6E6E6E6E6E6E6E6E6E6E6E6E6E6E6E6E6E6E6E6E676E6E676E6E6E6E6E6E6E676E6E6E6E6E6E6E6E6E6E6E6E6E6E6E6E6E6E6E6E6E6E6E6E6E6E6E6E676E6E6E6E6E6E6E676E6E6
310
E6E6E6E6E6E6E67676E6E6E6E6E6E6E6E6E6E6E6E6E6E6E6E6E6E6E6E6E6E6E6E6E6E6E6E6E6E6E6E6E6E6E6E6E6E6E6E6E6E6E6E6E6E6E6E6E6E6E6E6E6E6E6E6E6E6E6E6E6E6E6E6E6E6E6E6E6E6E6E6E6E6E6E6E6E6E6E6E6E6E6E6E6E6E6E6E6E6E6E6E6E6E6E6E6E6E6E6E6E6E6E6E6E6E6E6E6E6E6E6E6E6E6E6E6E6
310
E6E6E6E6E6E6E6E6E6E6E6E6E6E6E6E6E6E6E6E6E6E6E6E6E6E6E6E6E6E6E6E6E6E6E6E6E6E6E6E6E6E6E6E6E6E6E6E6E6E6E6E6E6E6E6E6E6E6E6E6E6E6E6E6E6E6E6E6E6E6E6E6E6E6E6E6E6E676E6E676E6E6E6E6E6E6E676E6E6E6E6E6E6E6E6E6E6E6E6E6E6E6E6E6E6E6E6E6E6E6E6E6E6E6E676E6E6E6E6E6E6E676
310
E6E6E6E6E6E6E6E6E67676E6E6E6E6E6E6E6E6E6E6E6E6E6E6E6E6E6E6E6E6E6E6E6E6E6E6E6E6E6E6E6E6E6E6E6E6E6E6E6E6E6E6E6E6E6E6E6E6E6E6E6E6E6E6E6E6E6E6E6E6E6E6E6E6E6E6E6E6E6E6E6E6E6E6E6E6E6E6E6E6E6E6E6E6E6E6E6E6E6E6E6E6E6E6E6E6E6E6E6E6E6E6E6E6E6E6E6E6E6E6E6E6E6E6E6E6
310
E6E6E6E6E6E6E6E6E6E6E6E6E6E6E6E6E6E6E6E6E6E6E6E6E6E6E6E6E6E6E6E6E6E6E6E6E6E6E6E6E6E6E6E6E6E6E6E6E6E6E6E6E6E6E6E6E6E6E6E6E6E6E6E6E6E6E6E6E6E6E6E6E6E6E6E6E6E6E6E676E6E676E6E6E6E6E6E6E676E6E6E6E6E6E6E6E6E6E6E6E6E6E6E6E6E6E6E6E6E6E6E6E6E6E6E6E676E6E6E6E6E6E6
310
E676E6E6E6E6E6E6E6E6767676E6E6E6E6E6E6E6E6E6E6E6E6E6E6E6E6E6E6E6E6E6E6E6E6E6E6E6E6E6E6E6E6E6E6E6E6E6E6E6E6E6E6E6E6E6E6E6E6E6E6E6E6E6E6E6E6E6E6E6E6E6E6E6E6E6E6E6E6E6E6E6E6E6E6E6E6E6E6E6E6E6E6E6E6E6E6E6E6E6E6E6E6E6E6E6E6E6E6E6E6E6E6E6E6E6E6E6E6E6E6E6E6E6E6
310
E6E6E6E6E6E6E6E6E6E6E6E6E6E6E6E6E6E6E6E6E6E6E6E6E6E6E6E6E6E6E6E6E6E6E6E6E6E6E6E6E6E6E6E6E6E6E6E6E6E6E6E6E6E6E6E6E6E6E6E6E6E6E6E6E6E6E6E6E6E6E6E6E6E6E6E6E6E6E6E6E6E676767676E6E6E6E6E6E6E676E6E6E6E6E6E6E6E6E6E6E6E6E6E6E6E6E6E6E6E6E6E6E6E6E6E6E6E676E6E6E6E6
310
E6E6E676E6E6E6E6E6E6E6E6767676E6E6E6E6E6E6E6E6E6E6E6E6E6E6E6E6E6E6E6E6E6E6E6E6E6E6E6E6E6E6E6E6E6E6E6E6E6E6E6E6E6E6E6E6E6E6E6E6E6E6E6E6E6E6E6E6E6E6E6E6E6E6E6E6E6E6E6E6E6E6E6E6E6E6E6E6E6E6E6E6E6E6E6E6E6E6E6E6E6E6E6E6E6E6E6E6E6E6E6E6E6E6E6E6E6E6E6E6E6E6E6E6
310
E6E6E6E6E6E6E6E6E6E6E6E6E6E6E6E6E6E6E6E6E6E6E6E6E6E6E6E6E6E6E6E6E6E6E6E6E6E6E6E6E6E6E6E6E6E6E6E6E6E6E6E6E6E6E6E6E6E6E6E6E6E6E6E6E6E6E6E6E6E6E6E6E6E6E6E6E6E6E6E6E6E6E6E67676E676E6E6E6E6E6E6E676E6E6E6E6E6E6E6E6E6E6E6E6E6E6E6E6E6E6E6E6E6E6E6E6E6E6E6E676E6E6
310
E6E6E6E6E676E6E6E6E6E6E6E6E6E67676E6E6E6E6E6E6E6E6E6E6E6E6E6E6E6E6E6E6E6E6E6E6E6E6E6E6E6E6E6E6E6E6E6E6E6E6E6E6E6E6E6E6E6E6E6E6E6E6E6E6E6E6E6E6E6E6E6E6E6E6E6E6E6E6E6E6E6E6E6E6E6E6E6E6E6E6E6E6E6E6E6E6E6E6E6E6E6E6E6E6E6E6E6E6E6E6E6E6E6E6E6E6E6E6E6E6E6E6E6E6
310
E6E6E6E6E6E6E6E6E6E6E6E6E6E6E6E6E6E6E6E6E6E6E6E6E6E6E6E6E6E6E6E6E6E6E6E6E6E6E6E6E6E6E6E6E6E6E6E6E6E6E6E6E6E6E6E6E6E6E6E6E6E6E6E6E6E6E6E6E6E6E6E6E6E6E6E6E6E6E6E6E6E6E6E6E6E676E6E676E6E6E6E6E6E6E676E6E6E6E6E6E6E6E6E6E6E6E6E6E6E6E6E6E6E6E6E6E6E6E6E6E6E6E676
310
E6E6E6E6E6E6E676E6E6E6E6E6E6E6E6E67676E6E6E6E6E6E6E6E6E6E6E6E6E6E6E6E6E6E6E6E6E6E6E6E6E6E6E6E6E6E6E6E6E6E6E6E6E6E6E6E6E6E6E6E6E6E6E6E6E6E6E6E6E6E6E6E6E6E6E6E6E6E6E6E6E6E6E6E6E6E6E6E6E6E6E6E6E6E6E6E6E6E6E6E6E6E6E6E6E6E6E6E6E6E6E6E6E6E6E6E6E6E6E6E6E6E6E6E6
310
E6E6E6E6E6E6E6E6E6E6E6E6E6E6E6E6E6E6E6E6E6E6E6E6E6E6E6E6E6E6E6E6E6E6E6E6E6E6E6E6E6E6E6E6E6E6E6E6E6E6E6E6E6E6E6E6E6E6E6E6E6E6E6E6E6E6E6E6E6E6E6E6E6E6E6E6E6E6E6E6E6E6E6E6E6E6E6E676E6E676E6E6E6E6E6E6E676E6E6E6E6E6E6E6E6E6E6E6E6E6E6E6E6E6E6E6E6E6E6E6E6E6E6E6
310
E676E6E6E6E6E6E6E676E6E6E6E6E6E6E6E6E67676E6E6E6E6E6E6E6E6E6E6E6E6E6E6E6E6E6E6E6E6E6E6E6E6E6E6E6E6E6E6E6E6E6E6E6E6E6E6E6E6E6E6E6E6E6E6E6E6E6E6E6E6E6E6E6E6E6E6E6E6E6E6E6E6E6E6E6E6E6E6E6E6E6E6E6E6E6E6E6E6E6E6E6E6E6E6E6E6E6E6E6E6E6E6E6E6E6E6E6E6E6E6E6E6E6E6
310
E6E6E6E6E6E6E6E6E6E6E6E6E6E6E6E6E6E6E6E6E6E6E6E6E6E6E6E6E6E6E6E6E6E6E6E6E6E6E6E6E6E6E6E6E6E6E6E6E6E6E6E6E6E6E6E6E6E6E6E6E6E6E6E6E6E6E6E6E6E6E6E6E6E6E6E6E6E6E6E6E6E6E6E6E6E6E6E6E6E676E6E676E6E6E6E6E6E6E676E6E6E6E6E6E6E6E6E6E6E6E6E6E6E6E6E6E6E6E6E6E6E6E6E6
310
E6E6E676E6E6E6E6E6E6E676E6E6E6E6E6E6E6E6E67676E6E6E6E6E6E6E6E6E6E6E6E6E6E6E6E6E6E6E6E6E6E6E6E6E6E6E6E6E6E6E6E6E6E6E6E6E6E6E6E6E6E6E6E6E6E6E6E6E6E6E6E6E6E6E6E6E6E6E6E6E6E6E6E6E6E6E6E6E6E6E6E6E6E6E6E6E6E6E6E6E6E6E6E6E6E6E6E6E6E6E6E6E6E6E6E6E6E6E6E6E6E6E6E6
310
E6E6E6E6E6E6E6E6E6E6E6E6E6E6E6E6E6E6E6E6E6E6E6E6E6E6E6E6E6E6E6E6E6E6E6E6E6E6E6E6E6E6E6E6E6E6E6E6E6E6E6E6E6E6E6E6E6E6E6E6E6E6E6E6E6E6E6E6E6E6E6E6E6E6E6E6E6E6E6E6E6E6E6E6E6E6E6E6E6E6E6E676E6E676E6E6E6E6E6E6E676E6E6E6E6E6E6E6E6E6E6E6E6E6E6E6E6E6E6E6E6E6E6E6
310
E6E6E6E6E676E6E6E6E6E6E6E676E6E6E6E6E6E6E6E6E67676E6E6E6E6E6E6E6E6E6E6E6E6E6E6E6E6E6E6E6E6E6E6E6E6E6E6E6E6E6E6E6E6E6E6E6E6E6E6E6E6E6E6E6E6E6E6E6E6E6E6E6E6E6E6E6E6E6E6E6E6E6E6E6E6E6E6E6E6E6E6E6E6E6E6E6E6E6E6E6E6E6E6E6E6E6E6E6E6E6E6E6E6E6E6E6E6E6E6E6E6E6E6
310
E6E6E6E6E6E6E6E6E6E6E6E6E6E6E6E6E6E6E6E6E6E6E6E6E6E6E6E6E6E6E6E6E6E6E6E6E6E6E6E6E6E6E6E6E6E6E6E6E6E6E6E6E6E6E6E6E6E6E6E6E6E6E6E6E6E6E6E6E6E6E6E6E6E6E6E6E6E6E6E6E6E6E6E6E6E6E6E6E6E6E6E6E6E676E6E676E6E6E6E6E6E6E676E6E6E6E6E6E6E6E6E6E6E6E6E6E6E6E6E6E6E6E6E6
310
E6E6E6E6E6E6E676E6E6E6E6E6E6E676E6E6E6E6E6E6E6E6E67676E6E6E6E6E6E6E6E6E6E6E6E6E6E6E6E6E6E6E6E6E6E6E6E6E6E6E6E6E6E6E6E6E6E6E6E6E6E6E6E6E6E6E6E6E6E6E6E6E6E6E6E6E6E6E6E6E6E6E6E6E6E6E6E6E6E6E6E6E6E6E6E6E6E6E6E6E6E6E6E6E6E6E6E6E6E6E6E6E6E6E6E6E6E6E6E6E6E6E6E6
310
E6E6E6E6E6E6E6E6E6E6E6E6E6E6E6E6E6E6E6E6E6E6E6E6E6E6E6E6E6E6E6E6E6E6E6E6E6E6E6E6E6E6E6E6E6E6E6E6E6E6E6E6E6E6E6E6E6E6E6E6E6E6E6E6E6E6E6E6E6E6E6E6E6E6E6E6E6E6E6E6E6E6E6E6E6E6E6E6E6E6E6E6E6E6E6E676E6E676E6E6E6E6E6E6E676E6E6E6E6E6E6E6E6E6E6E6E6E6E6E6E6E6E6E6
310
E6E6E6E6E6E6E6E6E676E6E6E6E6E6E6E676E6E6E6E6E6E6E6E6E67676E6E6E6E6E6E6E6E6E6E6E6E6E6E6E6E6E6E6E6E6E6E6E6E6E6E6E6E6E6E6E6E6E6E6E6E6E6E6E6E6E6E6E6E6E6E6E6E6E6E6E6E6E6E6E6E6E6E6E6E6E6E6E6E6E6E6E6E6E6E6E6E6E6E6E6E6E6E6E6E6E6E6E6E6E6E6E6E6E6E6E6E6E6E6E6E6E6E6
310
E6E6E6E6E6E6E6E6E6E6E6E6E6E6E6E6E6E6E6E6E6E6E6E6E6E6E6E6E6E6E6E6E6E6E6E6E6E6E6E6E6E6E6E6E6E6E6E6E6E6E6E6E6E6E6E6E6E6E6E6E6E6E6E6E6E6E6E6E6E6E6E6E6E6E6E6E6E6E6E6E6E6E6E6E6E6E6E6E6E6E6E6E6E6E6E6E6E676E6E676E6E6E6E6E6E6E676E6E6E6E6E6E6E6E6E6E6E6E6E6E6E6E6E6
310
E6E6E6E6E6E6E6E6E6E6E676E6E6E6E6E6E6E676E6E6E6E6E6E6E6E6E67676E6E6E6E6E6E6E6E6E6E6E6E6E6E6E6E6E6E6E6E6E6E6E6E6E6E6E6E6E6E6E6E6E6E6E6E6E6E6E6E6E6E6E6E6E6E6E6E6E6E6E6E6E6E6E6E6E6E6E6E6E6E6E6E6E6E6E6E6E6E6E6E6E6E6E6E6E6E6E6E6E6E6E6E6E6E6E6E6E6E6E6E6E6E6E6E6
310
E6E6E6E6E6E6E6E6E6E6E6E6E6E6E6E6E6E6E6E6E6E6E6E6E6E6E6E6E6E6E6E6E6E6E6E6E6E6E6E6E6E6E6E6E6E6E6E6E6E6E6E6E6E6E6E6E6E6E6E6E6E6E6E6E6E6E6E6E6E6E6E6E6E6E6E6E6E6E6E6E6E6E6E6E6E6E6E6E6E6E6E6E6E6E6E6E6E6E6E676E6E676E6E6E6E6E6E6E676E6E6E6E6E6E6E6E6E6E6E6E6E6E6E6
310
E6E6E6E6E6E6E6E6E6E6E6E6E676E6E6E6E6E6E6E676E6E6E6E6E6E6E6E6E67676E6E6E6E6E6E6E6E6E6E6E6E6E6E6E6E6E6E6E6E6E6E6E6E6E6E6E6E6E6E6E6E6E6E6E6E6E6E6E6E6E6E6E6E6E6E6E6E6E6E6E6E6E6E6E6E6E6E6E6E6E6E6E6E6E6E6E6E6E6E6E6E6E6E6E6E6E6E6E6E6E6E6E6E6E6E6E6E6E6E6E6E6E6E6
310
E6E6E6E6E6E6E6E6E6E6E6E6E6E6E6E6E6E6E6E6E6E6E6E6E6E6E6E6E6E6E6E6E6E6E6E6E6E6E6E6E6E6E6E6E6E6E6E6E6E6E6E6E6E6E6E6E6E6E6E6E6E6E6E6E6E6E6E6E6E6E6E6E6E6E6E6E6E6E6E6E6E6E6E6E6E6E6E6E6E6E6E6E6E6E6E6E6E6E6E6E6E676E6E676E6E6E6E6E6E6E676E6E6E6E6E6E6E6E6E6E6E6E6E6
310
E6E6E6E6E6E6E6E6E6E6E6E6E6E6E676E6E6E6E6E6E6E676E6E6E6E6E6E6E6E6E67676E6E6E6E6E6E6E6E6E6E6E6E6E6E6E6E6E6E6E6E6E6E6E6E6E6E6E6E6E6E6E6E6E6E6E6E6E6E6E6E6E6E6E6E6E6E6E6E6E6E6E6E6E6E6E6E6E6E6E6E6E6E6E6E6E6E6E6E6E6E6E6E6E6E6E6E6E6E6E6E6E6E6E6E6E6E6E6E6E6E6E6E6
310
E6E6E6E6E6E6E6E6E6E6E6E6E6E6E6E6E6E6E6E6E6E6E6E6E6E6E6E6E6E6E6E6E6E6E6E6E6E6E6E6E6E6E6E6E6E6E6E6E6E6E6E6E6E6E6E6E6E6E6E6E6E6E6E6E6E6E6E6E6E6E6E6E6E6E6E6E6E6E6E6E6E6E6E6E6E6E6E6E6E6E6E6E6E6E6E6E6E6E6E6E6E6E6E676E6E676E6E6E6E6E6E6E676E6E6E6E6E6E6E6E6E6E6E6
310
E6E6E6E6E6E6E6E6E6E6E6E6E6E6E6E6E676E6E6E6E6E6E6E676E6E6E6E6E6E6E6E6E67676E6E6E6E6E6E6E6E6E6E6E6E6E6E6E6E6E6E6E6E6E6E6E6E6E6E6E6E6E6E6E6E6E6E6E6E6E6E6E6E6E6E6E6E6E6E6E6E6E6E6E6E6E6E6E6E6E6E6E6E6E6E6E6E6E6E6E6E6E6E6E6E6E6E6E6E6E6E6E6E6E6E6E6E6E6E6E6E6E6E6
310
E6E6E6E6E6E6E6E6E6E6E6E6E6E6E6E6E6E6E6E6E6E6E6E6E6E6E6E6E6E6E6E6E6E6E6E6E6E6E6E6E6E6E6E6E6E6E6E6E6E6E6E6E6E6E6E6E6E6E6E6E6E6E6E6E6E6E6E6E6E6E6E6E6E6E6E6E6E6E6E6E6E6E6E6E6E6E6E6E6E6E6E6E6E6E6E6E6E6E6E6E6E6E6E6E6E676E6E676E6E6E6E6E6E6E676E6E6E6E6E6E6E6E6E6
310
E6E6E6E6E6E6E6E6E6E6E6E6E6E6E6E6E6E6E676E6E6E6E6E6E6E676E6E6E6E6E6E6E6E6E67676E6E6E6E6E6E6E6E6E6E6E6E6E6E6E6E6E6E6E6E6E6E6E6E6E6E6E6E6E6E6E6E6E6E6E6E6E6E6E6E6E6E6E6E6E6E6E6E6E6E6E6E6E6E6E6E6E6E6E6E6E6E6E6E6E6E6E6E6E6E6E6E6E6E6E6E6E6E6E6E6E6E6E6E6E6E6E6E6
310
E6E6E6E6E6E6E6E6E6E6E6E6E6E6E6E6E6E6E6E6E6E6E6E6E6E6E6E6E6E6E6E6E6E6E6E6E6E6E6E6E6E6E6E6E6E6E6E6E6E6E6E6E6E6E6E6E6E6E6E6E6E6E6E6E6E6E6E6E6E6E6E6E6E6E6E6E6E6E6E6E6E6E6E6E6E6E6E6E6E6E6E6E6E6E6E6E6E6E6E6E6E6E6E6E6E6E6E676E6E676E6E6E6E6E6E6E676E6E6E6E6E6E6E6
310
E6E6E6E6E6E6E6E6E6E6E6E6E6E6E6E6E6E6E6E6E676E6E6E6E6E6E6E676E6E6E6E6E6E6E6E6E67676E6E6E6E6E6E6E6E6E6E6E6E6E6E6E6E6E6E6E6E6E6E6E6E6E6E6E6E6E6E6E6E6E6E6E6E6E6E6E6E6E6E6E6E6E6E6E6E6E6E6E6E6E6E6E6E6E6E6E6E6E6E6E6E6E6E6E6E6E6E6E6E6E6E6E6E6E6E6E6E6E6E6E6E6E6E6
310
E6E6E6E6E6E6E6E6E6E6E6E6E6E6E6E6E6E6E6E6E6E6E6E6E6E6E6E6E6E6E6E6E6E6E6E6E6E6E6E6E6E6E6E6E6E6E6E6E6E6E6E6E6E6E6E6E6E6E6E6E6E6E6E6E6E6E6E6E6E6E6E6E6E6E6E6E6E6E6E6E6E6E6E6E6E6E6E6E6E6E6E6E6E6E6E6E6E6E6E6E6E6E6E6E6E6E6E6E6E676E6E676E6E6E6E6E6E6E676E6E6E6E6E6
310
E6E6E6E6E6E6E6E6E6E6E6E6E6E6E6E6E6E6E6E6E6E6E676E6E6E6E6E6E6E676E6E6E6E6E6E6E6E6E67676E6E6E6E6E6E6E6E6E6E6E6E6E6E6E6E6E6E6E6E6E6E6E6E6E6E6E6E6E6E6E6E6E6E6E6E6E6E6E6E6E6E6E6E6E6E6E6E6E6E6E6E6E6E6E6E6E6E6E6E6E6E6E6E6E6E6E6E6E6E6E6E6E6E6E6E6E6E6E6E6E6E6E6E6
310
E6E6E6E6E6E6E6E6E6E6E6E6E6E6E6E6E6E6E6E6E6E6E6E6E6E6E6E6E6E6E6E6E6E6E6E6E6E6E6E6E6E6E6E6E6E6E6E6E6E6E6E6E6E6E6E6E6E6E6E6E6E6E6E6E6E6E6E6E6E6E6E6E6E6E6E6E6E6E6E6E6E6E6E6E6E6E6E6E6E6E6E6E6E6E6E6E6E6E6E6E6E6E6E6E6E6E6E6E6E6E6E676E6E676E6E6E6E6E6E6E676E6E6E6
310
E6E6E6E6E6E6E6E6E6E6E6E6E6E6E6E6E6E6E6E6E6E6E6E6E676E6E6E6E6E6E6E676E6E6E6E6E6E6E6E6E67676E6E6E6E6E6E6E6E6E6E6E6E6E6E6E6E6E6E6E6E6E6E6E6E6E6E6E6E6E6E6E6E6E6E6E6E6E6E6E6E6E6E6E6E6E6E6E6E6E6E6E6E6E6E6E6E6E6E6E6E6E6E6E6E6E6E6E6E6E6E6E6E6E6E6E6E6E6E6E6E6E6E6
310
E6E6E6E6E6E6E6E6E6E6E6E6E6E6E6E6E6E6E6E6E6E6E6E6E6E6E6E6E6E6E6E6E6E6E6E6E6E6E6E6E6E6E6E6E6E6E6E6E6E6E6E6E6E6E6E6E6E6E6E6E6E6E6E6E6E6E6E6E6E6E6E6E6E6E6E6E6E6E6E6E6E6E6E6E6E6E6E6E6E6E6E6E6E6E6E6E6E6E6E6E6E6E6E6E6E6E6E6E6E6E6E6E6E676E6E676E6E6E6E6E6E6E676E6
310
E6E6E6E6E6E6E6E6E6E6E6E6E6E6E6E6E6E6E6E6E6E6E6E6E6E6E676E6E6E6E6E6E6E676E6E6E6E6E6E6E6E6E67676E6E6E6E6E6E6E6E6E6E6E6E6E6E6E6E6E6E6E6E6E6E6E6E6E6E6E6E6E6E6E6E6E6E6E6E6E6E6E6E6E6E6E6E6E6E6E6E6E6E6E6E6E6E6E6E6E6E6E6E6E6E6E6E6E6E6E6E6E6E6E6E6E6E6E6E6E6E6E6E6
310
E6E6E6E6E6E6E6E6E6E6E6E6E6E6E6E6E6E6E6E6E6E6E6E6E6E6E6E6E6E6E6E6E6E6E6E6E6E6E6E6E6E6E6E6E6E6E6E6E6E6E6E6E6E6E6E6E6E6E6E6E6E6E6E6E6E6E6E6E6E6E6E6E6E6E6E6E6E6E6E6E6E6E6E6E6E6E6E6E6E6E6E6E6E6E6E6E6E6E6E6E6E6E6E6E6E6E6E6E6E6E6E6E6E6E6E676E6E676E6E6E6E6E6E6E6
310
76E6E6E6E6E6E6E6E6E6E6E6E6E6E6E6E6E6E6E6E6E6E6E6E6E6E6E6E676E6E6E6E6E6E6E676E6E6E6E6E6E6E6E6E67676E6E6E6E6E6E6E6E6E6E6E6E6E6E6E6E6E6E6E6E6E6E6E6E6E6E6E6E6E6E6E6E6E6E6E6E6E6E6E6E6E6E6E6E6E6E6E6E6E6E6E6E6E6E6E6E6E6E6E6E6E6E6E6E6E6E6E6E6E6E6E6E6E6E6E6E6E6E6
310
E6E6E6E6E6E6E6E6E6E6E6E6E6E6E6E6E6E6E6E6E6E6E6E6E6E6E6E6E6E6E6E6E6E6E6E6E6E6E6E6E6E6E6E6E6E6E6E6E6E6E6E6E6E6E6E6E6E6E6E6E6E6E6E6E6E6E6E6E6E6E6E6E6E6E6E6E6E6E6E6E6E6E6E6E6E6E6E6E6E6E6E6E6E6E6E6E6E6E6E6E6E6E6E6E6E6E6E6E6E6E6E6E6E6E6E6E6E676E6E676E6E6E6E6E6
310
E6E676E6E6E6E6E6E6E6E6E6E6E6E6E6E6E6E6E6E6E6E6E6E6E6E6E6E6E6E676E6E6E6E6E6E6E676E6E6E6E6E6E6E6E6767676E6E6E6E6E6E6E6E6E6E6E6E6E6E6E6E6E6E6E6E6E6E6E6E6E6E6E6E6E6E6E6E6E6E6E6E6E6E6E6E6E6E6E6E6E6E6E6E6E6E6E6E6E6E6E6E6E6E6E6E6E6E6E6E6E6E6E6E6E6E6E6E6E6E6E6E6
310
E6E6E6E6E6E6E6E6E6E6E6E6E6E6E6E6E6E6E6E6E6E6E6E6E6E6E6E6E6E6E6E6E6E6E6E6E6E6E6E6E6E6E6E6E6E6E6E6E6E6E6E6E6E6E6E6E6E6E6E6E6E6E6E6E6E6E6E6E6E6E6E6E6E6E6E6E6E6E6E6E6E6E6E6E6E6E6E6E6E6E6E6E6E6E6E6E6E6E6E6E6E6E6E6E6E6E6E6E6E6E6E6E6E6E6E6E6E6E6E67676E676E6E6E6
310
E6E6E6E676E6E6E6E6E6E6E6E6E6E6E6E6E6E6E6E6E6E6E6E6E6E6E6E6E6E6E6E676E6E6E6E6E6E6E676E6E6E6E6E6E6E6E6E67676E6E6E6E6E6E6E6E6E6E6E6E6E6E6E6E6E6E6E6E6E6E6E6E6E6E6E6E6E6E6E6E6E6E6E6E6E6E6E6E6E6E6E6E6E6E6E6E6E6E6E6E6E6E6E6E6E6E6E6E6E6E6E6E6E6E6E6E6E6E6E6E6E6E6
310
E6E6E6E6E6E6E6E6E6E6E6E6E6E6E6E6E6E6E6E6E6E6E6E6E6E6E6E6E6E6E6E6E6E6E6E6E6E6E6E6E6E6E6E6E6E6E6E6E6E6E6E6E6E6E6E6E6E6E6E6E6E6E6E6E6E6E6E6E6E6E6E6E6E6E6E6E6E6E6E6E6E6E6E6E6E6E6E6E6E6E6E6E6E6E6E6E6E6E6E6E6E6E6E6E6E6E6E6E6E6E6E6E6E6E6E6E6E6E6E6E6E676E6E676E6
310
E6E6E6E6E6E676E6E6E6E6E6E6E6E6E6E6E6E6E6E6E6E6E6E6E6E6E6E6E6E6E6E6E6E676E6E6E6E6E6E6E676E6E6E6E6E6E6E6E6E67676E6E6E6E6E6E6E6E6E6E6E6E6E6E6E6E6E6E6E6E6E6E6E6E6E6E6E6E6E6E6E6E6E6E6E6E6E6E6E6E6E6E6E6E6E6E6E6E6E6E6E6E6E6E6E6E6E6E6E6E6E6E6E6E6E6E6E6E6E6E6E6E6
310
E6E6E6E6E6E6E6E6E6E6E6E6E6E6E6E6E6E6E6E6E6E6E6E6E6E6E6E6E6E6E6E6E6E6E6E6E6E6E6E6E6E6E6E6E6E6E6E6E6E6E6E6E6E6E6E6E6E6E6E6E6E6E6E6E6E6E6E6E6E6E6E6E6E6E6E6E6E6E6E6E6E6E6E6E6E6E6E6E6E6E6E6E6E6E6E6E6E6E6E6E6E6E6E6E6E6E6E6E6E6E6E6E6E6E6E6E6E6E6E6E6E6E6E676E6E6
310
76E6E6E6E6E6E6E676E6E6E6E6E6E6E6E6E6E6E6E6E6E6E6E6E6E6E6E6E6E6E6E6E6E6E6E676E6E6E6E6E6E6E676E6E6E6E6E6E6E6E6E67676E6E6E6E6E6E6E6E6E6E6E6E6E6E6E6E6E6E6E6E6E6E6E6E6E6E6E6E6E6E6E6E6E6E6E6E6E6E6E6E6E6E6E6E6E6E6E6E6E6E6E6E6E6E6E6E6E6E6E6E6E6E6E6E6E6E6E6E6E6E6
310
E6E6E6E6E6E6E6E6E6E6E6E6E6E6E6E6E6E6E6E6E6E6E6E6E6E6E6E6E6E6E6E6E6E6E6E6E6E6E6E6E6E6E6E6E6E6E6E6E6E6E6E6E6E6E6E6E6E6E6E6E6E6E6E6E6E6E6E6E6E6E6E6E6E6E6E6E6E6E6E6E6E6E6E6E6E6E6E6E6E6E6E6E6E6E6E6E6E6E6E6E6E6E6E6E6E6E6E6E6E6E6E6E6E6E6E6E6E6E6E6E6E6E6E6E6E676
310
E6E676E6E6E6E6E6E6E676E6E6E6E6E6E6E6E6E6E6E6E6E6E6E6E6E6E6E6E6E6E6E6E6E6E6E6E676E6E6E6E6E6E6E676E6E6E6E6E6E6E6E6E67676E6E6E6E6E6E6E6E6E6E6E6E6E6E6E6E6E6E6E6E6E6E6E6E6E6E6E6E6E6E6E6E6E6E6E6E6E6E6E6E6E6E6E6E6E6E6E6E6E6E6E6E6E6E6E6E6E6E6E6E6E6E6E6E6E6E6E6E6
310
E6E6E6E6E6E6E6E6E6E6E6E6E6E6E6E6E6E6E6E6E6E6E6E6E6E6E6E6E6E6E6E6E6E6E6E6E6E6E6E6E6E6E6E6E6E6E6E6E6E6E6E6E6E6E6E6E6E6E6E6E6E6E6E6E6E6E6E6E6E6E6E6E6E6E6E6E6E6E6E6E6E6E6E6E6E6E6E6E6E6E6E6E6E6E6E6E6E6E6E6E6E6E6E6E6E6E6E6E6E6E6E6E6E6E6E6E6E6E6E6E6E6E6E6E6E6E6
310
E676E6E676E6E6E6E6E6E6E676E6E6E6E6E6E6E6E6E6E6E6E6E6E6E6E6E6E6E6E6E6E6E6E6E6E6E6E676E6E6E6E6E6E6E676E6E6E6E6E6E6E6E6E67676E6E6E6E6E6E6E6E6E6E6E6E6E6E6E6E6E6E6E6E6E6E6E6E6E6E6E6E6E6E6E6E6E6E6E6E6E6E6E6E6E6E6E6E6E6E6E6E6E6E6E6E6E6E6E6E6E6E6E6E6E6E6E6E6E6E6
310
E6E6E6E6E6E6E6E6E6E6E6E6E6E6E6E6E6E6E6E6E6E6E6E6E6E6E6E6E6E6E6E6E6E6E6E6E6E6E6E6E6E6E6E6E6E6E6E6E6E6E6E6E6E6E6E6E6E6E6E6E6E6E6E6E6E6E6E6E6E6E6E6E6E6E6E6E6E6E6E6E6E6E6E6E6E6E6E6E6E6E6E6E6E6E6E6E6E6E6E6E6E6E6E6E6E6E6E6E6E6E6E6E6E6E6E6E6E6E6E6E6E6E6E6E6E6E6
310
E6E6E676E6E676E6E6E6E6E6E6E676E6E6E6E6E6E6E6E6E6E6E6E6E6E6E6E6E6E6E6E6E6E6E6E6E6E6E6E676E6E6E6E6E6E6E676E6E6E6E6E6E6E6E6E67676E6E6E6E6E6E6E6E6E6E6E6E6E6E6E6E6E6E6E6E6E6E6E6E6E6E6E6E6E6E6E6E6E6E6E6E6E6E6E6E6E6E6E6E6E6E6E6E6E6E6E6E6E6E6E6E6E6E6E6E6E6E6E6E6
310
E6E6E6E6E6E6E6E6E6E6E6E6E6E6E6E6E6E6E6E6E6E6E6E6E6E6E6E6E6E6E6E6E6E6E6E6E6E6E6E6E6E6E6E6E6E6E6E6E6E6E6E6E6E6E6E6E6E6E6E6E6E6E6E6E6E6E6E6E6E6E6E6E6E6E6E6E6E6E6E6E6E6E6E6E6E6E6E6E6E6E6E6E6E6E6E6E6E6E6E6E6E6E6E6E6E6E6E6E6E6E6E6E6E6E6E6E6E6E6E6E6E6E6E6E6E6E6
310
E6E6E6E6E676E6E676E6E6E6E6E6E6E676E6E6E6E6E6E6E6E6E6E6E6E6E6E6E6E6E6E6E6E6E6E6E6E6E6E6E6E676E6E6E6E6E6E6E676E6E6E6E6E6E6E6E6E67676E6E6E6E6E6E6E6E6E6E6E6E6E6E6E6E6E6E6E6E6E6E6E6E6E6E6E6E6E6E6E6E6E6E6E6E6E6E6E6E6E6E6E6E6E6E6E6E6E6E6E6E6E6E6E6E6E6E6E6E6E6E6
310
E6E6E6E6E6E6E6E6E6E6E6E6E6E6E6E6E6E6E6E6E6E6E6E6E6E6E6E6E6E6E6E6E6E6E6E6E6E6E6E6E6E6E6E6E6E6E6E6E6E6E6E6E6E6E6E6E6E6E6E6E6E6E6E6E6E6E6E6E6E6E6E6E6E6E6E6E6E6E6E6E6E6E6E6E6E6E6E6E6E6E6E6E6E6E6E6E6E6E6E6E6E6E6E6E6E6E6E6E6E6E6E6E6E6E6E6E6E6E6E6E6E6E6E6E6E6E6
310
E6E6E6E6E6E6E676E6E676E6E6E6E6E6E6E676E6E6E6E6E6E6E6E6E6E6E6E6E6E6E6E6E6E6E6E6E6E6E6E6E6E6E6E676E6E6E6E6E6E6E676E6E6E6E6E6E6E6E6E67676E6E6E6E6E6E6E6E6E6E6E6E6E6E6E6E6E6E6E6E6E6E6E6E6E6E6E6E6E6E6E6E6E6E6E6E6E6E6E6E6E6E6E6E6E6E6E6E6E6E6E6E6E6E6E6E6E6E6E6E6
310
E6E6E6E6E6E6E6E6E6E6E6E6E6E6E6E6E6E6E6E6E6E6E6E6E6E6E6E6E6E6E6E6E6E6E6E6E6E6E6E6E6E6E6E6E6E6E6E6E6E6E6E6E6E6E6E6E6E6E6E6E6E6E6E6E6E6E6E6E6E6E6E6E6E6E6E6E6E6E6E6E6E6E6E6E6E6E6E6E6E6E6E6E6E6E6E6E6E6E6E6E6E6E6E6E6E6E6E6E6E6E6E6E6E6E6E6E6E6E6E6E6E6E6E6E6E6E6
310
E6E6E6E6E6E6E6E6E676E6E676E6E6E6E6E6E6E676E6E6E6E6E6E6E6E6E6E6E6E6E6E6E6E6E6E6E6E6E6E6E6E6E6E6E6E676E6E6E6E6E6E6E676E6E6E6E6E6E6E6E6E67676E6E6E6E6E6E6E6E6E6E6E6E6E6E6E6E6E6E6E6E6E6E6E6E6E6E6E6E6E6E6E6E6E6E6E6E6E6E6E6E6E6E6E6E6E6E6E6E6E6E6E6E6E6E6E6E6E6E6
310
E6E6E6E6E6E6E6E6E6E6E6E6E6E6E6E6E6E6E6E6E6E6E6E6E6E6E6E6E6E6E6E6E6E6E6E6E6E6E6E6E6E6E6E6E6E6E6E6E6E6E6E6E6E6E6E6E6E6E6E6E6E6E6E6E6E6E6E6E6E6E6E6E6E6E6E6E6E6E6E6E6E6E6E6E6E6E6E6E6E6E6E6E6E6E6E6E6E6E6E6E6E6E6E6E6E6E6E6E6E6E6E6E6E6E6E6E6E6E6E6E6E6E6E6E6E6E6
310
E6E6E6E6E6E6E6E6E6E6E676E6E676E6E6E6E6E6E6E676E6E6E6E6E6E6E6E6E6E6E6E6E6E6E6E6E6E6E6E6E6E6E6E6E6E6E6E676E6E6E6E6E6E6E676E6E6E6E6E6E6E6E6E67676E6E6E6E6E6E6E6E6E6E6E6E6E6E6E6E6E6E6E6E6E6E6E6E6E6E6E6E6E6E6E6E6E6E6E6E6E6E6E6E6E6E6E6E6E6E6E6E6E6E6E6E6E6E6E6E6
310
E6E6E6E6E6E6E6E6E6E6E6E6E6E6E6E6E6E6E6E6E6E6E6E6E6E6E6E6E6E6E6E6E6E6E6E6E6E6E6E6E6E6E6E6E6E6E6E6E6E6E6E6E6E6E6E6E6E6E6E6E6E6E6E6E6E6E6E6E6E6E6E6E6E6E6E6E6E6E6E6E6E6E6E6E6E6E6E6E6E6E6E6E6E6E6E6E6E6E6E6E6E6E6E6E6E6E6E6E6E6E6E6E6E6E6E6E6E6E6E6E6E6E6E6E6E6E6
310
E6E6E6E6E6E6E6E6E6E6E6E6E676E6E676E6E6E6E6E6E6E676E6E6E6E6E6E6E6E6E6E6E6E6E6E6E6E6E6E6E6E6E6E6E6E6E6E6E6E676E6E6E6E6E6E6E676E6E6E6E6E6E6E6E6E67676E6E6E6E6E6E6E6E6E6E6E6E6E6E6E6E6E6E6E6E6E6E6E6E6E6E6E6E6E6E6E6E6E6E6E6E6E6E6E6E6E6E6E6E6E6E6E6E6E6E6E6E6E6E6
310
E6E6E6E6E6E6E6E6E6E6E6E6E6E6E6E6E6E6E6E6E6E6E6E6E6E6E6E6E6E6E6E6E6E6E6E6E6E6E6E6E6E6E6E6E6E6E6E6E6E6E6E6E6E6E6E6E6E6E6E6E6E6E6E6E6E6E6E6E6E6E6E6E6E6E6E6E6E6E6E6E6E6E6E6E6E6E6E6E6E6E6E6E6E6E6E6E6E6E6E6E6E6E6E6E6E6E6E6E6E6E6E6E6E6E6E6E6E6E6E6E6E6E6E6E6E6E6
310
E6E6E6E6E6E6E6E6E6E6E6E6E6E6E676E6E676E6E6E6E6E6E6E676E6E6E6E6E6E6E6E6E6E6E6E6E6E6E6E6E6E6E6E6E6E6E6E6E6E6E6E676E6E6E6E6E6E6E676E6E6E6E6E6E6E6E6E67676E6E6E6E6E6E6E6E6E6E6E6E6E6E6E6E6E6E6E6E6E6E6E6E6E6E6E6E6E6E6E6E6E6E6E6E6E6E6E6E6E6E6E6E6E6E6E6E6E6E6E6E6
310
E6E6E6E6E6E6E6E6E6E6E6E6E6E6E6E6E6E6E6E6E6E6E6E6E6E6E6E6E6F5E6E6E6E6E6E6E6E6E6E6E6E6E6E6E6E6E6E6E6E6E6E6E6E6E6E6E6E6E6E6E6E6E6E6E6E6E6E6E6E6E6E6E6E6E6E6E6E6E6E6E6E6E6E6E6E6E6E6E6E6E6E6E6E6E6E6E6E6E6E6E6E6E6E6E6E6E6E6E6E6E6E6E6E6E6E6E6E6E6E6E6E6E6E6E6E6E6
310
E6E6E6E6E6E6E6E6E6E6E6E6E6E6E6E6E676E6E676E6E6E6E6E6E6E676E6E6E6E6E6E6E6E6E6E6E6E6E6E6E6E6E6E6E6E6E6E6E6E6E6E6E6E676E6E6E6E6E6E6E676E6E6E6E6E6E6E6E6E67676E6E6E6E6E6E6E6E6E6E6E6E6E6E6E6E6E6E6E6E6E6E6E6E6E6E6E6E6E6E6E6E6E6E6E6E6E6E6E6E6E6E6E6E6E6E6E6E6E6E6
310
E6E6E6E6E6E6E6E6E6E6E6E6E6E6BEE6E6E6E6E6E6E6E6E6E6E6E6F5F5F5F5F5F5E6E6E6E6E6E6E6E6E6E6E6E6E6E6E6BEE6E6E6E6E6E6E6E6E6E6E6E6E6E6E6E6E6E6E6E6E6E6E6E6E6E6E6E6E6E6E6E6E6E6E6E6E6E6E6E6E6E6E6E6E6E6E6E6E6E6E6E6E6E6E6E6E6E6E6E6E6E6E6E6E6E6E6E6E6E6E6E6E6E6E6E6E6E6
310
E6E6E6E6E6E6E6E6E6E6E6E6E6E6E6E6E6E6E676E6E676E6E6E6E6E6E6E676E6E6E6E6E6E6E6E6E6E6E6E6E6E6E6E6E6E6E6E6E6E6E6E6E6E6E6E676E6E6E6E6E6E6E676E6E6E6E6E6E6E6E6E67676E6E6E6E6E6E6E6E6E6E6E6E6E6E6E6E6E6E6E6E6E6E6E6E6E6E6E6E6E6E6E6E6E6E6E6E6E6E6E6E6E6E6E6E6E6E6E6E6
310
E6E6E6E6E6E6E6E6E6E6E6E6E6E6E6E6BEE6E6E6E6E6E6E6E6E6E6E6E6E6E6F5F5C3F5E6E6E6E6E6E6E6E6E6E6E6E6E6E6E6BEE6E6E6E6E6E6E6E6E6E6E6E6E6E6E6E6E6E6E6E6E6E6E6E6E6E6E6E6E6E6E6E6E6E6E6E6E6E6E6E6E6E6E6E6E6E6E6E6E6E6E6E6E6E6E6E6E6E6E6E6E6E6E6E6E6E6E6E6E6E6E6E6E6E6E6E6
310
E6E6E6E6E6E6E6E6E6E6E6E6E6E6E6E6E6E6E6E6E676E6E676E6E6E6E6E6E6E676E6E6E6E6E6E6E6E6E6E6E6E6E6E6E6E6E6E6E6E6E6E6E6E6E6E6E6E676E6E6E6E6E6E6E676E6E6E6E6E6E6E6E6E67676E6E6E6E6E6E6E6E6E6E6E6E6E6E6E6E6E6E6E6E6E6E6E6E6E6E6E6E6E6E6E6E6E6E6E6E6E6E6E6E6E6E6E6E6E6E6
310
E6E6E6E6E6E6E6E6E6E6E6E6E6E6E6E6E6E6BEE6E6E6E6E6E6E6E6E6E6E6E6E6E6E6E6F5E6E6E6E6E6E6E6E6E6E6E6E6E6E6E6E6BEE6E6E6E6E6E6E6E6E6E6E6E6E6E6E6E6E6E6E6E6E6E6E6E6E6E6E6E6E6E6E6E6E6E6E6E6E6E6E6E6E6E6E6E6E6E6E6E6E6E6E6E6E6E6E6E6E6E6E6E6E6E6E6E6E6E6E6E6E6E6E6E6E6E6
310
E6E6E6E6E6E6E6E6E6E6E6BEE6E6E6E6E6E6E6E6E6E6E676E6E676E6E6E6E6E6E6E676E6E6E6E6E6E6E6E6E6E6E6E6E6E6E6E6E6E6E6E6E6E6E6E6E6E6E6E676E6E6E6E6E6E6E676E6E6E6E6E6E6E6E6E67676E6E6E6E6E6E6E6E6E6E6E6E6E6E6E6E6E6E6E6E6E6E6E6E6E6E6E6E6E6E6E6F5F5F5F5F5F5F5F5F5F5F5F5F5
310
F5F5F5F5F5F5F5F5F5F5F5F5F5F5F5F5F5F5F5F5BEF5F5F5F5F5F5F5F5F5F5F5F5F5F5F5F5BEF5F5F5F5F5F5F5F5F5F5F5F5F5F5F5F5BEF5F5F5F5F5F5F5F5F5F5F5F5F5F5F5F5F5F5F5F5F5F5F5F5F5F5F5F5F5F5F5F5F5E6E6E6E6E6E6E6E6E6E6E6E6E6E6E6E6E6E6E6E6F5F5F5F5F5F5DCDC2828282828282828E6E6E6
310
E6E6E6E6E6C3C3C3F5F5F5F5F5BEE6E6E6E6E6E6E6E6E6E6E676E6E676E6E6E6E6E6E6E676E6E6E6E6E6E6E6E6E6E6E6E6E6E6E6E6E6E6E6E6E6E6E6E6E6E6E6E676E6E6E6E6E6E6E676E6E6E6E6E6E6E6E6E67676E6E6E6E6E6E6E6E6E6E6E6E6E6E6E6E6E6E6E6E6E6E6E6E6E6E6E6E6E6E6E6F5F5F52D2D2D2D2D2D2D2D
310
2D2D2D2D2D2D2D2D2D2D2D2D2D2D2D2D2D2D2D2D2DF5BEF5F52D2D2D2D2D2D2D2D2D2D2D2D2D2D2D2D2D2D2D2D2D2D2D2D2D2D2D2D2DF5F5BEF5F52D2D2D2D2D2D2D2D2D2D2D2D2D2D2D2D2D2D2D2D2D2D2D2D2D2D2DF5F5F5F5E6E6E6E6E6E6E6E6E6E6E6E6E6E6E6E6E6E6E6E6F5E6E6DCDCDCDCE6F5E6E6E6E6E62828E6
310
E6E6E6E6E6E6E6C3C3C3C3C3F5F5E6F5E6E6E6E6E6E6E6E6E6E6E676E6E676E6E6E6E6E6E6E676E6E6E6E6E6E6E6E6E6E6E6E6E6E6E6E6E6E6E6E6E6E6E6E6E6E6E6E676E6E6E6E6E6E6E676E6E6E6E6E6E6E6E6767676E6E6E6E6E6E6E6E6E6E6E6E6E6E6E6E6E6E6E6E6E6E6E6E6E6E6E6E6E6E6E6F5F52DE6E6E6E6E6E6
310
E6E6E6E6E6E6E6E6E6E6E6E6E6E6E6E6E6E6E6E6E6E62D2DF5F52D2DE6E6E6E6E6E6E6E6E6E6E6E6E6BEE6E6E6E6E6E6E6E6E6E6E6E6E6E62DF5F52D2DE6E6E6E6E6E6E6E6E6E6E6E6E6E6E6E6E6E6E6E6E6E6E6E6E6E6E6E62DF5F5E6E6E6E6E6E6E6E6E6E6E6E6E6E6E6E6E6E6E6E6F5DCDCF5E6F5DCE6F5E6E6E6E6E628
310
E6E6E6E6E6E6E6E6E6C32DF5F5F5E6F5E6F5E6E6E6E6E6E6E6E6E6E6E676767676E6E6E6E6E6E6E676E6E6E6E6E6E6E6E6E6E6E6E6E6E6E6E6E6E6E6E6E6E6E6E6E6E6E6E676E6E6E6E6E6E6E676E6E6E6E6E6E6E6E6767676E6E6E6E6E6E6E6E6E6E6E6E6E6E6E6E6E6E6E6E6E6E6E6E6E6E6E6E6E6E6E6F5F52DE6E6E6E6
310
E6E6E6E6E6E6E6E6E6E6E6E6E6E6E6E6E6E6E6E6E6E6E6E6E62DF5F52DE6E6E6E6E6E6E6E6E6E6E6E6E6E6BEE6E6E6E6E6E6E6E6E6E6E6E6E6E6E62DF52DE6E6E6E6E6E6E6E6E6E6E6E6E6E6E6E6E6E6E6E6E6E6E6E6E6E6E6E6E6E6F5F5E6E6E6E6E6E6E6E6E6E6E6E6E6E6E6E6E6E6E6E6F5DCE6F5E6F5DCE6F5E6E6E6E6
310
E628E6E6E6E6E6E6E6E6E6C3C3E6E6E6E6F5E6F5E6E6E6E6E6E6E6E6E6E6E676767676E6E6E6E6E6E6E676E6E6E6E6E6E6E6E6E6E6E6E6E6E6E6E6E6E6E6E6E6E6E6E6E6E6E6E676E6E6E6E6E6E6E676E6E6E6E6E6E6E6E6E67676E6E6E6E6E6E6E6E6E6E6E6E6E6E6E6E6E6E6E6E6E6E6E6E6E6E6E6E6E6E6E6F5F52DE6E6
310
E6E6E6E6E6E6E6E6E6E6E6E6E6E6E6E6E6E6E6E6E6E6E6E6E6E6E62DBEF52DE6E6E6E6E6E6E6E6E6E6E6E6E6E6BEE6E6E6E6E6E6E6E6E6E6E6E6E6E6E62DF52DE6E6E6E6E6E6E6E6E6E6E6E6E6E6E6E6E6E6E6E6E6E6E6E6E6E6E6E6E6E62DF5E6E6E6E6E6E6E6E6E6E6E6E6E6E6E6E6E6E6E6E6F5DCE6F5E6F5DCE6F5E6E6
310
E6E6E628E6E6E6E6E6E6E6E6E6C3C3E6E6E6E6F5E6F5E6E6E6E6E6E6E6E6E6E6E676E6E676E6E6E6E6E6E6E676E6E6E6E6E6E6E6E6E6E6E6E6E6E6E6E6E6E6E6E6E6E6E6E6E6E6E6E676E6E6E6E6E6E6E676E6E6E6E6E6E6E6E6E67676E6E6E6E6E6E6E6E6E6E6E6E6E6E6E6E6E6E6E6E6E6E6E6E6E6E6E6E6E6E6E6F5F52D
310
E6E6E6E6E6E6E6E6E6E6E6E6E6E6E6E6E6E6E6E6E6E6E6E6E6E6E6E6E62DBEF52DE6E6E6E6E6E6E6E6E6E6E6E6E6E6BEE6E6E6E6E6E6E6E6E6E6E6E6E6E6E62DF52DE6E6E6E6E6E6E6E6E6E6E6E6E6E6E6E6E6E6E6E6E6E6E6E6E6E6E6E6E6E62DF5E6E6E6E6E6E6E6E6E6E6E6E6E6E6E6E6E6E6E6E6F5DCE6F5E6F5DCE6F5
310
E6E6E6E6E628E6E6E6E6E6E6E6E6E6C3C3E6E6E6E6F5E6F5E6E6E6E6E6E6E6E6E6E6E676E6E676E6E6E6E6E6E6E676E6E6E6E6E6E6E6E6E6E6E6E6E6E6E6E6E6E6E6E6E6E6E6E6E6E6E6E676E6E6E6E6E6E6E676E6E6E6E6E6E6E6E6E67676E6E6E6E6E6E6E6E6E6E6E6E6E6E6E6E6E6E6E6E6E6E6E6E6E6E6E6E6E6E6E6F5
310
F52DE6E6E6E6E6E6E6E6E6E6E6E6E6E6E6E6E6E6E6E6E6E6E6E6E6E6E6E6E62DBEF52DE6E6E6E6E6E6E6E6E6E6E6E6E6E6BEE6E6E6E6E6E6E6E6E6E6E6E6E6E6E62DF52DE6E6E6E6E6E6E6E6E6E6E6E6E6E6E6E6E6E6E6E6E6E6E6E6E6E6E6E6E6E62DF5E6E6E6E6E6E6E6E6E6E6E6E6E6E6E6E6E6E6E6E6F5DCE6F5E6F5DC
310
E6F5E6E6E6E6E628E6E6E6E6E6E6E6E6E6C3C3E6E6E6E6F5E6F5E6E6E6E6E6E6E6E6E6E6E676E6E676E6E6E6E6E6E6E676E6E6E6E6E6E6E6E6E6E6E6E6E6E6E6E6E6E6E6E6E6E6E6E6E6E6E6E676E6E6E6E6E6E6E676E6E6E6E6E6E6E6E6E67676E6E6E6E6E6E6E6E6E6E6E6E6E6E6E6E6E6E6E6E6E6E6E6E6E6E6E6E6E6E6
310
E6F5F52DE6E6E6E6E6E6E6E6E6E6E6E6E6E6E6E6E6E6E6E6E6E6E6E6E6E6E6E6E62DBEF52DE6E6E6E6E6E6E6E6E6E6E6E6E6E6BEE6E6E6E6E6E6E6E6E6E6E6E6E6E6E62DF52DE6E6E6E6E6E6E6E6E6E6E6E6E6E6E6E6E6E6E6E6E6E6E6E6E6E6E6E6E6E62DF5E6E6E6E6E6E6E6E6E6E6E6E6E6E6E6E6E6E6E6E6F5DCE6F5E6
310
F5DCE6F5E6E6E6E6E628E6E6E6E6E6E6E6E6E6C3C3E6E6E6E6F5E6F5E6E6E6E6E6E6E6E6E6E6E676E6E676E6E6E6E6E6E6E676E6E6E6E6E6E6E6E6E6E6E6E6E6E6E6E6E6E6E6E6E6E6E6E6E6E6E6E676E6E6E6E6E6E6E676E6E6E6E6E6E6E6E6E67676E6E6E6E6E6E6E6E6E6E6E6E6E6E6E6E6E6E6E6E6E6E6E6E6E6E6E6E6
310
E6E6E6F5F52DE6E6E6E6E6E6E6E6E6E6E6E6E6E6E6E6E6E6E6E6E6E6E6E6E6E6E6E6E62DBEF52DE6E6E6E6E6E6E6E6E6E6E6E6E6E6BEE6E6E6E6E6E6E6E6E6E6E6E6E6E6E62DF52DE6E6E6E6E6E6E6E6E6E6E6E6E6E6E6E6E6E6E6E6E6E6E6E6E6E6E6E6E6E62DF5E6E6E6E6E6E6E6E6E6E6E6E6E6E6E6E6E6E6E6E6F5DCE6
310
F5E6F5DCE6F5E6E6E6E6E628E6E6E6E6E6E6E6E6E6C3C3E6E6E6E6F5E6F5E6E6E6E6E6E6E6E6E6E6E676E6E676E6E6E6E6E6E6E676E6E6E6E6E6E6E6E6E6E6E6E6E6E6E6E6E6E6E6E6E6E6E6E6E6E6E6E676E6E6E6E6E6E6E676E6E6E6E6E6E6E6E6E67676E6E6E6E6E6E6E6E6E6E6E6E6E6E6E6E6E6E6E6E6E6E6E6E6E6E6
310
E6E6E6E6E6F5F52DE6E6E6E6E6E6E6E6E6E6E6E6E6E6E6E6E6E6E6E6E6E6E6E6E6E6E6E6E62DBEF52DE6E6E6E6E6E6E6E6E6E6E6E6E6E6BEE6E6E6E6E6E6E6E6E6E6E6E6E6E6E62DF52DE6E6E6E6E6E6E6E6E6E6E6E6E6E6E6E6E6E6E6E6E6E6E6E6E6E6E6E6E6E62DF5E6E6E6E6E6E6E6E6E6E6E6E6E6E6E6E6E6E6E6E6F5
310
DCE6F5E6F5DCE6F5E6E6E6E6E628E6E6E6E6E6E6E6E6E6C3C3E6E6E6E6F5E6F5E6E6E6E6E6E6E6E6E6E6E676E6E676E6E6E6E6E6E6E676E6E6E6E6E6E6E6E6E6E6E6E6E6E6E6E6E6E6E6E6E6E6E6E6E6E6E6E676E6E6E6E6E6E6E676E6E6E6E6E6E6E6E6E67676E6E6E6E6E6E6E6E6E6E6E6E6E6E6E6E6E6E6E6E6E6E6E6E6
310
E6E6E6E6E6E6E6F5F52DE6E6E6E6E6E6E6E6E6E6E6E6E6E6E6E6E6E6E6E6E6E6E6E6E6E6E6E6E62DBEF52DE6E6E6E6E6E6E6E6E6E6E6E6E6E6BEE6E6E6E6E6E6E6E6E6E6E6E6E6E6E62DF52DE6E6E6E6E6E6E6E6E6E6E6E6E6E6E6E6E6E6E6E6E6E6E6E6E6E6E6E6E6E62DF5E6E6E6E6E6E6E6E6E6E6E6E6E6E6E6E6E6E6E6
310
E6F5DCE6F5E6F5DCE6F5E6E6E6E6E628E6E6E6E6E6E6E6E6E6C3C3E6E6E6E6F5E6F5E6E6E6E6E6E6E6E6E6E6E676E6E676E6E6E6E6E6E6E676E6E6E6E6E6E6E6E6E6E6E6E6E6E6E6E6E6E6E6E6E6E6E6E6E6E6E6E676E6E6E6E6E6E6E676E6E6E6E6E6E6E6E6E67676E6E6E6E6E6E6E6E6E6E6E6E6E6E6E6E6E6E6E6E6E6E6
310
E6E6E6E6E6E6E6E6E6F5F52DE6E6E6E6E6E6E6E6E6E6E6E6E6E6E6E6E6E6E6E6E6E6E6E6E6E6E6E6E62DBEF52DE6E6E6E6E6E6E6E6E6E6E6E6E6E6BEE6E6E6E6E6E6E6E6E6E6E6E6E6E6E62DF52DE6E6E6E6E6E6E6E6E6E6E6E6E6E6E6E6E6E6E6E6E6E6E6E6E6E6E6E6E6E62DF5E6E6E6E6E6E6E6E6E6E6E6E6E6E6E6E6E6
310
E6E6E6F5DCE6F5E6F5DCE6F5E6E6E6E6E628E6E6E6E6E6E6E6E6E6C3C3E6E6E6E6F5E6F5E6E6E6E6E6E6E6E6E6E6E676E6E676E6E6E6E6E6E6E676E6E6E6E6E6E6E6E6E6E6E6E6E6E6E6E6E6E6E6E6E6E6E6E6E6E6E6E676E6E6E6E6E6E6E676E6E6E6E6E6E6E6E6E67676E6E6E6E6E6E6E6E6E6E6E6E6E6E6E6E6E6E6E6E6
310
E6E6E6E6E6E6E6E6E6E6E6F5F52DE6E6E6E6E6E6E6E6E6E6E6E6E6E6E6E6E6E6E6E6E6E6E6E6E6E6E6E6E62DBEF52DE6E6E6E6E6E6E6E6E6E6E6E6E6E6BEE6E6E6E6E6E6E6E6E6E6E6E6E6E6E62DF52DE6E6E6E6E6E6E6E6E6E6E6E6E6E6E6E6E6E6E6E6E6E6E6E6E6E6E6E6E6E62DF5E6E6E6E6E6E6E6E6E6E6E6E6E6E6E6
310
E6E6E6E6E6F5DCE6F5E6F5DCE6F5E6E6E6E6E628E6E6E6E6E6E6E6E6E6C3C3E6E6E6E6F5E6F5E6E6E6E6E6E6E6E6E6E6E676E6E676E6E6E6E6E6E6E676E6E6E6E6E6E6E6E6E6E6E6E6E6E6E6E6E6E6E6E6E6E6E6E6E6E6E6E676E6E6E6E6E6E6E676E6E6E6E6E6E6E6E6E67676E6E6E6E6E6E6E6E6E6E6E6E6E6E6E6E6E6E6
310
E6E6E6E6E6E6E6E6E6E6E6E6E6F5F52DE6E6E6E6E6E6E6E6E6E6E6E6E6E6E6E6E6E6E6E6E6E6E6E6E6E6E6E6E62DBEF52DE6E6E6E6E6E6E6E6E6E6E6E6E6E6BEE6E6E6E6E6E6E6E6E6E6E6E6E6E6E62DF52DE6E6E6E6E6E6E6E6E6E6E6E6E6E6E6E6E6E6E6E6E6E6E6E6E6E6E6E6E6E62DF5E6E6E6E6E6E6E6E6E6E6E6E6E6
310
E6E6E6E6E6E6E6F5DCE6F5E6F5DCE6F5E6E6E6E6E628E6E6E6E6E6E6E6E6E6C3C3E6E6E6E6F5E6F5E6E6E6E6E6E6E6E6E6E6E676E6E676E6E6E6E6E6E6E676E6E6E6E6E6E6E6E6E6E6E6E6E6E6E6E6E6E6E6E6E6E6E6E6E6E6E6E676E6E6E6E6E6E6E676E6E6E6E6E6E6E6E6E67676E6E6E6E6E6E6E6E6E6E6E6E6E6E6E6E6
310
E6E6E6E6E6E6E6E6E6E6E6E6E6E6E6F5F52DE6E6E6E6E6E6E6E6E6E6E6E6E6E6E6E6E6E6E6E6E6E6E6E6E6E6E6E6E62DBEF52DE6E6E6E6E6E6E6E6E6E6E6E6E6E6BEE6E6E6E6E6E6E6E6E6E6E6E6E6E6E62DF52DE6E6E6E6E6E6E6E6E6E6E6E6E6E6E6E6E6E6E6E6E6E6E6E6E6E6E6E6E6E62DF5E6E6E6E6E6E6E6E6E6E6E6
310
E6E6E6E6E6E6E6E6E6F5DCE6F5E6F5DCE6F5E6E6E6E6E628E6E6E6E6E6E6E6E6E6C3C3E6E6E6E6F5E6F5E6E6E6E6E6E6E6E6E6E6E676E6E676E6E6E6E6E6E6E676E6E6E6E6E6E6E6E6E6E6E6E6E6E6E6E6E6E6E6E6E6E6E6E6E6E6E6E676E6E6E6E6E6E6E676E6E6E6E6E6E6E6E6E67676E6E6E6E6E6E6E6E6E6E6E6E6E6E6
310
E6E6E6E6E6E6E6E6E6E6E6E6E6E6E6E6E6F5F52DE6E6E6E6E6E6E6E6E6E6E6E6E6E6E6E6E6E6E6E6E6E6E6E6E6E6E6E6E62DBEF52DE6E6E6E6E6E6E6E6E6E6E6E6E6E6BEE6E6E6E6E6E6E6E6E6E6E6E6E6E6E62DF52DE6E6E6E6E6E6E6E6E6E6E6E6E6E6E6E6E6E6E6E6E6E6E6E6E6E6E6E6E6E62DF5E6E6E6E6E6E6E6E6E6
310
E6E6E6E6E6E6E6E6E6E6E6F5DCE6F5E6F5DCE6F5E6E6E6E6E628E6E6E6E6E6E6E6E6E6C3C3E6E6E6E6F5E6F5E6E6E6E6E6E6E6E6E6E6E676E6E676E6E6E6E6E6E6E676E6E6E6E6E6E6E6E6E6E6E6E6E6E6E6E6E6E6E6E6E6E6E6E6E6E6E6E676E6E6E6E6E6E6E676E6E6E6E6E6E6E6E6E67676E6E6E6E6E6E6E6E6E6E6E6E6
310
E6E6E6E6E6E6E6E6E6E6E6E6E6E6E6E6E6E6E6F5F52DE6E6E6E6E6E6E6E6E6E6E6E6E6E6E6E6E6E6E6E6E6E6E6E6E6E6E6E6E62DBEF52DE6E6E6E6E6E6E6E6E6E6E6E6E6E6BEE6E6E6E6E6E6E6E6E6E6E6E6E6E6E62DF52DE6E6E6E6E6E6E6E6E6E6E6E6E6E6E6E6E6E6E6E6E6E6E6E6E6E6E6E6E6E62DF5E6E6E6E6E6E6E6
310
E6E6E6E6E6E6E6E6E6E6E6E6E6F5DCE6F5E6F5DCE6F5E6E6E6E6E628E6E6E6E6E6E6E6E6E6C3C3E6E6E6E6F5E6F5E6E6E6E6E6E6E6E6E6E6E676E6E676E6E6E6E6E6E6E676E6E6E6E6E6E6E6E6E6E6E6E6E6E6E6E6E6E6E6E6E6E6E6E6E6E6E6E676E6E6E6E6E6E6E676E6E6E6E6E6E6E6E6E67676E6E6E6E6E6E6E6E6E6E6
310
E6E6E6E6E6E6E6E6E6E6E6E6E6E6E6E6E6E6E6E6E6F5F52DE6E6E6E6E6E6E6E6E6E6E6E6E6E6E6E6E6E6E6E6E6E6E6E6E6E6E6E6E62DBEF52DE6E6E6E6E6E6E6E6E6E6E6E6E6E6BEE6E6E6E6E6E6E6E6E6E6E6E6E6E6E62DF52DE6E6E6E6E6E6E6E6E6E6E6E6E6E6E6E6E6E6E6E6E6E6E6E6E6E6E6E6E6E62DF5E6E6E6E6E6
310
E6E6E6E6E6E6E6E6E6E6E6E6E6E6E6F5DCE6F5E6F5DCE6F5E6E6E6E6E628E6E6E6E6E6E6E6E6E6C3C3E6E6E6E6F5E6F5E6E6E6E6E6E6E6E6E6E6E676E6E676E6E6E6E6E6E6E676E6E6E6E6E6E6E6E6E6E6E6E6E6E6E6E6E6E6E6E6E6E6E6E6E6E6E6E676E6E6E6E6E6E6E676E6E6E6E6E6E6E6E6E67676E6E6E6E6E6E6E6E6
310
E6E6E6E6E6E6E6E6E6E6E6E6E6E6E6E6E6E6E6E6E6E6E6F5F52DE6E6E6E6E6E6E6E6E6E6E6E6E6E6E6E6E6E6E6E6E6E6E6E6E6E6E6E6E62DBEF52DE6E6E6E6E6E6E6E6E6E6E6E6E6E6BEE6E6E6E6E6E6E6E6E6E6E6E6E6E6E62DF52DE6E6E6E6E6E6E6E6E6E6E6E6E6E6E6E6E6E6E6E6E6E6E6E6E6E6E6E6E6E62DF5E6E6E6
310
E6E6E6E6E6E6E6E6E6E6E6E6E6E6E6E6E6F5DCE6F5E6F5DCE6F5E6E6E6E6E628E6E6E6E6E6E6E6E6E6C3C3E6E6E6E6F5E6F5E6E6E6E6E6E6E6E6E6E6E676E6E676E6E6E6E6E6E6E676E6E6E6E6E6E6E6E6E6E6E6E6E6E6E6E6E6E6E6E6E6E6E6E6E6E6E6E676E6E6E6E6E6E6E676E6E6E6E6E6E6E6E6E67676E6E6E6E6E6E6
310
E6E6E6E6E6E6E6E6E6E6E6E6E6E6E6E6E6E6E6E6E6E6E6E6E6F5F52DE6E6E6E6E6E6E6E6E6E6E6E6E6E6E6E6E6E6E6E6E6E6E6E6E6E6E6E6E62DBEF52DE6E6E6E6E6E6E6E6E6E6E6E6E6E6DCDCE6E6E6E6E6E6E6E6E6E6E6E6E6E62DF52DE6E6E6E6E6E6E6E6E6E6E6E6E6E6E6E6E6E6E6E6E6E6E6E6E6E6E6E6E6E62DF5E6
310
E6E6E6E6E6E6E6E6E6E6E6E6E6E6E6E6E6E6E6DCDCE6F5E6F5DCE6F5E6E6E6E6E628E6E6E6E6E6E6E6E6E6F5C3E6E6E6E6F5E6F5E6E6E6E6E6E6E6E6E6E6E676E6E676E6E6E6E6E6E6E676E6E6E6E6E6E6E6E6E6E6E6E6E6E6E6E6E6E6E6E6E6E6E6E6E6E6E6E676E6E6E6E6E6E6E6767676767676E6E6E6767676E6E6E6E6
310
E6E6E6E6E6E6E6E6E6E6E6E6E6E6E6E6E6E6E6E6E6E6E6E6E6E6E6F5F52DE6E6E6E6E6E6E6E6E6E6E6E6E6E6E6E6E6E6E6E6E6E6E6E6E6E6E6E6E62DBEF52DE6E6E6E6E6E6E6E6E6E6E6DCDCDCF5F5DCDCE6E6E6E6E6E6E6E6E6E6E6E62DF52DE6E6E6E6E6E6E6E6E6E6E6E6E6E6E6E6E6E6E6E6E6E6E6E6E6E6E6E6E6E62D
310
F5E6E6E6E6E6E6E6E6E6E6E6E6E6E6E6E6E6E6E6E6DCDCE6F5E6F5DCE6F5E6E6E6E6E628E6E6E6E6E6E6E6E6E6F5F5E6E6E6E6F5E6F5E6E6E6E6E6E6E6E6E6E6E67676E676E6E6E6E6E6E6E676E6E6E6E6E6E6E6E6E6E6E6E6E6E6E6E6E6E6E6E6E6E6E6E6E6E6E6E676E6E6E6E6E6E6E676E6E6E6E6E6E6E6E6E67676E6E6
310
E6E6E6E6E6E6E6E6E6E6E6E6E6E6E6E6E6E6E6E6E6E6E6E6E6E6E6E6E6F5F52DE6E6E6E6E6E6E6E6E6E6E6E6E6E6E6E6E6E6E6E6E6E6E6E6E6E6E6E6E62DBEF52DE6E6E6E6E6E6E6E6E6E6E6DCF5E6BEE6E6F5DCE6E6E6E6E6E6E6E6E6E6E62DF52DE6E6E6E6E6E6E6E6E6E6E6E6E6E6E6E6E6E6E6E6E6E6E6E6E6E6E6E6E6
310
E62DF5E6E6E6E6E6E6E6E6E6E6E6E6E6E6E6E6E6E6E6E6DCDCE6F5E6F5DCE6F5E6E6E6E6E628E6E6E6E6E6E6E6E6E6F5F5E6E6E6E6F5E6F5E6E6E6E6E6E6E6E6E6E6E676E6E676E6E6E6E6E6E6E676E6E6E6E6E6E6E6E6E6E6E6E6E6E6E6E6E6E6E6E6E6E6E6E6E6E6E6E676E6E6E6E6E6E6E676E6E6E6E6E6E6E6E6E67676
310
E6E6E6E6E6E6E6E6E6E6E6E6E6E6E6E6E6E6E6E6E6E6E6E6E6E6E6E6E6E6E6F5F52DE6E6E6E6E6E6E6E6E6E6E6E6E6E6E6E6E6E6E6E6E6E6E6E6E6E6E6E6E62D2D2D2DE6E6E6E6E6E6E6E6E6DCDCF5E6E6BEE6E6E6F5DCE6E6E6E6E6E6E6E6E6E62DF52DE6E6E6E6E6E6E6E6E6E6E6E6E6E6E6E6E6E6E6E6E6E6E6E6E6E6E6
310
E6E6E62DF5E6E6E6E6E6E6E6E6E6E6E6E6E6E6E6E6E6E6E6E6DCDCE6F5E6F5DCE6F5E6E6E6E6E628E6E6E6E6E6E6E6E6E6F5F5F5F5F5F5F5E6F5E6E6E6E6E6E6E6E6E6E6E676E6E676E6E6E6E6E6E6E676E6E6E6E6E6E6E6E6E6E6E6E6E6E6E6E6E6E6E6E6E6E6E6E6E6E6E6E676E6E6E6E6E6E6E676E6E6E6E6E6E6E6E6E6
310
7676E6E6E6E6E6E6E6E6E6E6E6E6E6E6E6E6E6E6E6E6E6E6E6E6E6E6E6E6E6E6E6F5F52D2D2D2D2D2D2D2D2D2D2D2D2D2D2D2D2D2D2D2D2D2D2D2D2D2D2D2D2D2D2D2D2D2D2D2D2D2D2D2D2D2D2DDCF52D2D2DBE2D2D2D2DF5DC2D2D2D2D2D2D2D2D2D2D2D2D2D2D2D2D2D2D2D2D2D2D2D2D2D2D2D2D2D2D2D2D2D2D2D2D2D
310
2D2D2D2DE6F5F5E6E6E6E6E6E6E6E6E6E6E6E6E6E6E6E6E6E6E6E6DCDCF5F5F5F5DCE6F5E6E6E6282828E6E6E6E6E6E6E6E6E6F5F5F5E6E6E6F5E6F5E6E6E6E6E6E6E6E6E6E6E676E6E676E6E6E6E6E6E6E676E6E6E6E6E6E6E6E6E6E6E6E6E6E6E6E6E6E6E6E6E6E6E6E6E6E6E6E676E6E6E6E6E6E6E676E6E6E6E6E6E6E6
310
E6E67676E6E6E6E6E6E6E6E6E6E6E6E6E6E6E6E6E6E6E6E6E6E6E6E6E6E6E6E6E6E6E6F5F5F5F5F5F5F5F5F5F5F5F5F5F5F5F5F5F5F5F5F5F5F5F5F5F5F5F5F5F5F5F5F5BEF5F5F5F5F5F5F5F5F5F5F5F5F5F5F5F5BEF5F5F5F5F5F5F5F5F5F5F5F5F5F5F5F5BEF5F5F5F5F5F5F5F5F5F5F5F5F5F5F5F5F5F5F5F5F5F5F5F5
310
F5F5F5F5F5F5F5F5F5E6E6E6E6E6E6E6E6E6E6E6E6E6E6E6E6E6E6E6E6DCF5F5F5DCDCDCE6F5E6E6E6282828E6E6E6E6E6E6E6E6E6F5F5C3F5F5F5F5E6F5E6E6E6E6E6E6E6E6E6E6E676E6E676E6E6E6E6E6E6E676E6E6E6E6E6E6E6E6E6E6E6E6E6E6E6E6E6E6E6E6E6E6E6E6E6E6E6E676E6E6E6E6E6E6E676E6E6E6E6E6
310
E6E6E6E67676E6E6E6E6E6E6E6E6E6E6E6E6E6E6E6E6E6E6E6E6E6E6E6E6E6E6E6E6E6E6E6F5F5BEBEBEBEBEBEBEBEBEBEBEBEBEBEBEBEBEBEBEBEBEBEBEBEBEBEBEBEBEBEBEBEBEBEBEBEBEBEBEBEBEBEBEBEBEBEBEBEBEBEBEBEBEBEBEBEBEBEBEBEBEBEBEBEBEBEBEBEBEBEBEBEBEBEBEBEBEBEBEBEBEBEBEBEBEBEBEBE
310
BEBEBEBEBEBEBEBEBEF5F5E6E6E6E6E6E6E6E6E6E6E6E6E6E6E6E6E6E6E6DCDCF5F5F5DCDCDCBEBEE6E6E6282828E6E6E6E6E6E6E6BEBEF5F5C3C3F5F5F5BEBEBEBEE6E6E6E6E6E6E6E6E676E6E676E6E6E6E6E6E6E676E6E6E6E6E6E6E6E6E6E6E6E6E6E6E6E6E6E6E6E6E6E6E6E6E6E6E6E676E6E6E6E6E6E6E676E6E6E6
310
E6E6E6E6E6E67676E6E6E6E6E6E6E6E6E6E6E6E6E6E6E6E6E6E6E6E6E6E6E6E6E6E6E6E6E6E6E6F5F52D2D2D2D2D2D2D2D2D2D2D2D2D2D2D2D2D2D2D2D2D2D2D2D2D2D2D2D2D2D2DBE2D2D2D2D2D2D2D2D2D2D2DDC2D2D2D2DBE2D2D2D2DF5DC2D2D2D2D2D2D2D2D2D2DBE2D2D2D2D2D2D2D2D2D2D2D2D2D2D2D2D2D2D2D2D
310
2D2D2D2D2D2D2D2D2D2D2DF5F5E6E6E6E6E6E6E6E6E6E6E6E6E6E6E6E6E6E6E6E6DCDCF5F5F5F5DCE6F5E6E6E6282828E6E6E6E6E6E6E6E6E6F5F5F5F5C3E6F5E6F5E6E6E6E6E6E6E6E6E6E6E676E6E676E6E6E6E6E6E6E676E6E6E6E6E6E6E6E6E6E6E6E6E6E6E6E6E6E6E6E6E6E6E6E6E6E6E6E676E6E6E6E6E6E6E676E6
310
E6E6E6E6E6E6E6E67676E6E6E6E6E6E6E6E6E6E6E6E6E6E6E6E6E6E6E6E6E6E6E6E6E6E6E6E6E6E6E6F5F52DE6E6E6E6E6E6E6E6E6E6E6E6E6E6E6E6E6E6E6E6E6E6E6E6E6E6E6E6E62D2D2D2DE6E6E6E6E6E6E6E6E6DCF5E6E6E6BEE6E6E6E6DCE6E6E6E6E6E6E6E6E6E62DF52DE6E6E6E6E6E6E6E6E6E6E6E6E6E6E6E6E6
310
E6E6E6E6E6E6E6E6E6E6E6E6E62DF5E6E6E6E6E6E6E6E6E6E6E6E6E6E6E6E6E6E6E6E6DCDCF5F5F5F5DCE6F5E6E6E6E62828E6E6E6E6E6E6E6E6E6F5F5F5F5F5F5F5E6F5E6E6E6E6E6E6E6E6E6E6E676E6E676E6E6E6E6E6E6E676E6E6E6E6E6E6E6E6E6E6E6E6E6E6E6E6E6E6E6E6E6E6E6E6E6E6E6E676E6E6E6E6E6E6E6
310
76E6E6E6E6E6E6E6E6E67676E6E6E6E6E6E6E6E6E6E6E6E6E6E6E6E6E6E6E6E6E6E6E6E6E6E6E6E6E6E6E6F5F52DE6E6E6E6E6E6E6E6E6E6E6E6E6E6E6E6E6E6E6E6E6E6E6E6E6E6E6E6E62DF5F52DE6E6E6E6E6E6E6E6E6DCDCE6E6E6BEE6E6E6F5DCE6E6E6E6E6E6E6E6E6E62DF52DE6E6E6E6E6E6E6E6E6E6E6E6E6E6E6
310
E6E6E6E6E6E6E6E6E6E6E6E6E6E6E62DF5E6E6E6E6E6E6E6E6E6E6E6E6E6E6E6E6E6E6E6E6DCDCE6F52D2DDCE6F5E6E6E6E6E628E6E6E6E6E6E6E6E6E6F5F5E6E6E6E6F5E6F5E6E6E6E6E6E6E6E6E6E6E676E6E676E6E6E6E6E6E6E676E6E6E6E6E6E6E6E6E6E6E6E6E6E6E6E6E6E6E6E6E6E6E6E6E6E6E6E676E6E6E6E6E6
310
E6E676E6E6E6E6E6E6E6E6E67676E6E6E6E6E6E6E6E6E6E6E6E6E6E6E6E6E6E6E6E6E6E6E6E6E6E6E6E6E6E6E6F5F52DE6E6E6E6E6E6E6E6E6E6E6E6E6E6E6E6E6E6E6E6E6E6E6E6E6E6E6E6E62DF5F52DE6E6E6E6E6E6E6E6E6E6DCF5E6E6BEE6E6F5DCE6E6E6E6E6E6E6E6E6E6E62DF52DE6E6E6E6E6E6E6E6E6E6E6E6E6
310
E6E6E6E6E6E6E6E6E6E6E6E6E6E6E6E6E62DF5E6E6E6E6E6E6E6E6E6E6E6E6E6E6E6E6E6E6E6E6DCDCE6F52D2DDCE6F5E6E6E6E6E628E6E6E6E6E6E6E6E6E6F5F5E6E6E6E6F5E6F5E6E6E6E6E6E6E6E6E6E6E676E6E676E6E6E6E6E6E6E676E6E6E6E6E6E6E6E6E6E6E6E6E6E6E6E6E6E6E6E6E6E6E6E6E6E6E6E676E6E6E6
310
E6E6E6E676E6E6E6E6E6E6E6E6E67676E6E6E6E6E6E6E6E6E6E6E6E6E6E6E6E6E6E6E6E6E6E6E6E6E6E6E6E6E6E6E6F5F52DE6E6E6E6E6E6E6E6E6E6E6E6E6E6E6E6E6E6E6E6E6E6E6E6E6E6E6E6E62DF5F52DE6E6E6E6E6E6E6E6E6E6E6DCDCDCDCDCDCDCE6E6E6E6E6E6E6E6E6E6E6E62DF52DE6E6E6E6E6E6E6E6E6E6E6
310
E6E6E6E6E6E6E6E6E6E6E6E6E6E6E6E6E6E6E62DF5E6E6E6E6E6E6E6E6E6E6E6E6E6E6E6E6E6E6E6E6DCDCE6F52D2DDCE6F5E6E6E6E6E628E6E6E6E6E6E6E6E6E6F5F5E6E6E6E6F5F5F5E6E6E6E6E6E6E6E6E6E6E676E6E676E6E6E6E6E6E6E676E6E6E6E6E6E6E6E6E6E6E6E6E6E6E6E6E6E6E6E6E6E6E6E6E6E6E6E676E6
310
E6E6E6E6E6E676E6E6E6E6E6E6E6E6E67676E6E6E6E6E6E6E6E6E6E6E6E6E6E6E6E6E6E6E6E6E6E6E6E6E6E6E6E6E6E6E6F5F52DE6E6E6E6E6E6E6E6E6E6E6E6E6E6E6E6E6E6E6E6E6E6E6E6E6E6E6E6E62DF5F52DE6E6E6E6E6E6E6E6E6E6E6E6E6E6DCDCE6E6E6E6E6E6E6E6E6E6E6E6E6E62DF52DE6E6E6E6E6E6E6E6E6
310
E6E6E6E6E6E6E6E6E6E6E6E6E6E6E6E6E6E6E6E6E62DF5E6E6E6E6E6E6E6E6E6E6E6E6E6E6E6E6E6E6E6E6F5DCE6F52D2DDCE6F5E6E6E6E6E628E6E6E6E6E6E6E6E6E6F5C3E6E6E6E6F5E6F5E6E6E6E6E6E6E6E6E6E6E676E6E676E6E6E6E6E6E6E676E6E6E6E6E6E6E6E6E6E6E6E6E6E6E6E6E6E6E6E6E6E6E6E6E6E6E6E6
310
76E6E6E6E6E6E6E676E6E6E6E6E6E6E6E6E67676E6E6E6E6E6E6E6E6E6E6E6E6E6E6E6E6E6E6E6E6E6E6E6E6E6E6E6E6E6E6E6F5F52DE6E6E6E6E6E6E6E6E6E6E6E6E6E6E6E6E6E6E6E6E6E6E6E6E6E6E6E6E62DF5F52DE6E6E6E6E6E6E6E6E6E6E6E6E6E6BEE6E6E6E6E6E6E6E6E6E6E6E6E6E6E62DF52DE6E6E6E6E6E6E6
310
E6E6E6E6E6E6E6E6E6E6E6E6E6E6E6E6E6E6E6E6E6E6E62DF5E6E6E6E6E6E6E6E6E6E6E6E6E6E6E6E6E6E6E6E6F5DCE6F52D2DDCE6F5E6E6E6E6E628E6E6E6E6E6E6E6E6E6C3C3E6E6E6E6F5E6F5E6E6E6E6E6E6E6E6E6E6E676E6E676E6E6E6E6E6E6E676E6E6E6E6E6E6E6E6E6E6E6E6E6E6E6E6E6E6E6E6E6E6E6E6E6E6
310
E6E676E6E6E6E6E6E6E676E6E6E6E6E6E6E6E6E67676E6E6E6E6E6E6E6E6E6E6E6E6E6E6E6E6E6E6E6E6E6E6E6E6E6E6E6E6E6E6E6F5F52DE6E6E6E6E6E6E6E6E6E6E6E6E6E6E6E6E6E6E6E6E6E6E6E6E6E6E6E6E62DF5F52DE6E6E6E6E6E6E6E6E6E6E6E6E6E6BEE6E6E6E6E6E6E6E6E6E6E6E6E6E6E62DF52DE6E6E6E6E6
310
E6E6E6E6E6E6E6E6E6E6E6E6E6E6E6E6E6E6E6E6E6E6E6E6E62DF5E6E6E6E6E6E6E6E6E6E6E6E6E6E6E6E6E6E6E6E6F5DCE6F52D2DDCE6F5E6E6E6E6E628E6E6E6E6E6E6E6E6E6C3C3E6E6E6E6F5E6F5E6E6E6E6E6E6E6E6E6E6E676E6E676E6E6E6E6E6E6E676E6E6E6E6E6E6E6E6E6E6E6E6E6E6E6E6E6E6E6E6E6E6E6E6
310
E6E6E6E676E6E6E6E6E6E6E676E6E6E6E6E6E6E6E6E67676E6E6E6E6E6E6E6E6E6E6E6E6E6E6E6E6E6E6E6E6E6E6E6E6E6E6E6E6E6E6E6F5F52DE6E6E6E6E6E6E6E6E6E6E6E6E6E6E6E6E6E6E6E6E6E6E6E6E6E6E6E6E62DF5F52DE6E6E6E6E6E6E6E6E6E6E6E6E6E6BEE6E6E6E6E6E6E6E6E6E6E6E6E6E6E62DF52DE6E6E6
310
E6E6E6E6E6E6E6E6E6E6E6E6E6E6E6E6E6E6E6E6E6E6E6E6E6E6E62DF5E6E6E6E6E6E6E6E6E6E6E6E6E6E6E6E6E6E6E6E6F5DCE6F52DF5DCE6F5E6E6E6E6E628E6E6E6E6E6E6E6E6E6C3C3E6E6E6E6F5E6F5E6E6E6E6E6E6E6E6E6E6E676E6E676E6E6E6E6E6E6E676E6E6E6E6E6E6E6E6E6E6E6E6E6E6E6E6E6E6E6E6E6E6
310
E6E6E6E6E6E676E6E6E6E6E6E6E676E6E6E6E6E6E6E6E6E67676E6E6E6E6E6E6E6E6E6E6E6E6E6E6E6E6E6E6E6E6E6E6E6E6E6E6E6E6E6E6E6F5F52DE6E6E6E6E6E6E6E6E6E6E6E6E6E6E6E6E6E6E6E6E6E6E6E6E6E6E6E6E62DF5F52DE6E6E6E6E6E6E6E6E6E6E6E6E6E6BEE6E6E6E6E6E6E6E6E6E6E6E6E6E6E62DF52DE6
310
E6E6E6E6E6E6E6E6E6E6E6E6E6E6E6E6E6E6E6E6E6E6E6E6E6E6E6E6E62DF5E6E6E6E6E6E6E6E6E6E6E6E6E6E6E6E6E6E6E6E6F5DCE6F52D2DDCE6F5E6E6E6E6E628E6E6E6E6E6E6E6E6E6C3C3E6E6E6E6F5E6F5E6E6E6E6E6E6E6E6E6E6E676E6E676E6E6E6E6E6E6E676E6E6E6E6E6E6E6E6E6E6E6E6E6E6E6E6E6E6E6E6
310
E6E6E6E6E6E6E6E676E6E6E6E6E6E6E676E6E6E6E6E6E6E6E6E67676E6E6E6E6E6E6E6E6E6E6E6E6E6E6E6E6E6E6E6E6E6E6E6E6E6E6E6E6E6E6E6F5F52DE6E6E6E6E6E6E6E6E6E6E6E6E6E6E6E6E6E6E6E6E6E6E6E6E6E6E6E6E62DF5F52DE6E6E6E6E6E6E6E6E6E6E6E6E6E6BEE6E6E6E6E6E6E6E6E6E6E6E6E6E6E62DF5
310
2DE6E6E6E6E6E6E6E6E6E6E6E6E6E6E6E6E6E6E6E6E6E6E6E6E6E6E6E6E6E62DF5E6E6E6E6E6E6E6E6E6E6E6E6E6E6E6E6E6E6E6E6F5DCE6F52D2DDCE6F5E6E6E6E6E628E6E6E6E6E6E6E6E6E6C3C3E6E6E6E6F5E6F5E6E6E6E6E6E6E6E6E6E6E676E6E676E6E6E6E6E6E6E676E6E6E6E6E6E6E6E6E6E6E6E6E6E6E6E6E6E6
310
E6E6E6E6E6E6E6E6E6E676E6E6E6E6E6E6E676E6E6E6E6E6E6E6E6E67676E6E6E6E6E6E6E6E6E6E6E6E6E6E6E6E6E6E6E6E6E6E6E6E6E6E6E6E6E6E6E6F5F52DE6E6E6E6E6E6E6E6E6E6E6E6E6E6E6E6E6E6E6E6E6E6E6E6E6E6E6E6E62DF5F52DE6E6E6E6E6E6E6E6E6E6E6E6E6E6BEE6E6E6E6E6E6E6E6E6E6E6E6E6E6E6
310
2DF52DE6E6E6E6E6E6E6E6E6E6E6E6E6E6E6E6E6E6E6E6E6E6E6E6E6E6E6E6E6E62DF5E6E6E6E6E6E6E6E6E6E6E6E6E6E6E6E6E6E6E6E6F5DCE6F5E6F5DCE6F5E6E6E6E6E628E6E6E6E6E6E6E6E6E6C3C3E6E6E6E6F5E6F5E6E6E6E6E6E6E6E6E6E6E676E6E676E6E6E6E6E6E6E676E6E6E6E6E6E6E6E6E6E6E6E6E6E6E6E6
310
E6E6E6E6E6E6E6E6E6E6E6E676E6E6E6E6E6E6E676E6E6E6E6E6E6E6E6767676E6E6E6E6E6E6E6E6E6E6E6E6E6E6E6E6E6E6E6E6E6E6E6E6E6E6E6E6E6E6E6F5F52DE6E6E6E6E6E6E6E6E6E6E6E6E6E6E6E6E6E6E6E6E6E6E6E6E6E6E6E6E62DF5F52DE6E6E6E6E6E6E6E6E6E6E6E6E6E6BEE6E6E6E6E6E6E6E6E6E6E6E6E6
310
E6E62DF52DE6E6E6E6E6E6E6E6E6E6E6E6E6E6E6E6E6E6E6E6E6E6E6E6E6E6E6E6E6E62DF5E6E6E6E6E6E6E6E6E6E6E6E6E6E6E6E6E6E6E6E6F5DCE6F52D2DDCE6F5E6E6E6E6E628E6E6E6E6E6E6E6E6E6C3C3E6E6E6E6F5E6F5E6E6E6E6E6E6E6E6E6E6E67676E676E6E6E6E6E6E6E676E6E6E6E6E6E6E6E6E6E6E6E6E6E6
310
E6E6E6E6E6E6E6E6E6E6E6E6E6E676E6E6E6E6E6E6E676E6E6E6E6E6E6E6E6767676E6E6E6E6E6E6E6E6E6E6E6E6E6E6E6E6E6E6E6E6E6E6E6E6E6E6E6E6E6E6E6F5F52DE6E6E6E6E6E6E6E6E6E6E6E6E6E6E6E6E6E6E6E6E6E6E6E6E6E6E6E6E62DF5F52DE6E6E6E6E6E6E6E6E6E6E6E6E6E6BEE6E6E6E6E6E6E6E6E6E6E6
310
E6E6E6E62DF52DE6E6E6E6E6E6E6E6E6E6E6E6E6E6E6E6E6E6E6E6E6E6E6E6E6E6E6E6E6E62DF5E6E6E6E6E6E6E6E6E6E6E6E6E6E6E6E6E6E6E6E6F5DCE6F52D2DDCE6F5E6E6E6E6E628E6E6E6E6E6E6E6E6E6C3C3E6E6E6E6F5E6F5E6E6E6E6E6E6E6E6E6E6E67676E676E6E6E6E6E6E6E676E6E6E6E6E6E6E6E6E6E6E6E6
310
E6E6E6E6E6E6E6E6E6E6E6E6E6E6E6E676E6E6E6E6E6E6E676E6E6E6E6E6E6E6E6E67676E6E6E6E6E6E6E6E6E6E6E6E6E6E6E6E6E6E6E6E6E6E6E6E6E6E6E6E6E6E6E6F5F52DE6E6E6E6E6E6E6E6E6E6E6E6E6E6E6E6E6E6E6E6E6E6E6E6E6E6E6E6E62DF5F52DE6E6E6E6E6E6E6E6E6E6E6E6E6E6BEE6E6E6E6E6E6E6E6E6
310
E6E6E6E6E6E62DF52DE6E6E6E6E6E6E6E6E6E6E6E6E6E6E6E6E6E6E6E6E6E6E6E6E6E6E6E6E6E62DF5E6E6E6E6E6E6E6E6E6E6E6E6E6E6E6E6E6E6E6E6F5DCE6F52D2DDCE6F5E6E6E6E6E628E6E6E6E6E6E6E6E6E6C3C3E6E6E6E6F5E6F5E6E6E6E6E6E6E6E6E6E6E676E6E676E6E6E6E6E6E6E676E6E6E6E6E6E6E6E6E6E6
310
E6E6E6E6E6E6E6E6E6E6E6E6E6E6E6E6E6E676E6E6E6E6E6E6E676E6E6E6E6E6E6E6E6E67676E6E6E6E6E6E6E6E6E6E6E6E6E6E6E6E6E6E6E6E6E6E6E6E6E6E6E6E6E6E6E6F5F52DE6E6E6E6E6E6E6E6E6E6E6E6E6E6E6E6E6E6E6E6E6E6E6E6E6E6E6E6E62DF5F52DE6E6E6E6E6E6E6E6E6E6E6E6E6E6BEE6E6E6E6E6E6E6
310
E6E6E6E6E6E6E6E62DF52DE6E6E6E6E6E6E6E6E6E6E6E6E6E6E6E6E6E6E6E6E6E6E6E6E6E6E6E6E6E62DF5E6E6E6E6E6E6E6E6E6E6E6E6E6E6E6E6E6E6E6E6F5DCE6F52D2DDCE6F5E6E6E6E6E628E6E6E6E6E6E6E6E6E6C3C3E6E6E6E6F5E6F5E6E6E6E6E6E6E6E6E6E6E676E6E676E6E6E6E6E6E6E676E6E6E6E6E6E6E6E6
310
E6E6E6E6E6E6E6E6E6E6E6E6E6E6E6E6E6E6E6E676E6E6E6E6E6E6E676E6E6E6E6E6E6E6E6E67676E6E6E6E6E6E6E6E6E6E6E6E6E6E6E6E6E6E6E6E6E6E6E6E6E6E6E6E6E6E6E6F5F52DE6E6E6E6E6E6E6E6E6E6E6E6E6E6E6E6E6E6E6E6E6E6E6E6E6E6E6E6E62DF5F52DE6E6E6E6E6E6E6E6E6E6E6E6E6E6BEE6E6E6E6E6
310
E6E6E6E6E6E6E6E6E6E62DF52DE6E6E6E6E6E6E6E6E6E6E6E6E6E6E6E6E6E6E6E6E6E6E6E6E6E6E6E6E6E62DF5E6E6E6E6E6E6E6E6E6E6E6E6E6E6E6E6E6E6E6E6F5DCE6F52D2DDCE6F5E6E6E6E6E628E6E6E6E6E6E6E6E6E6C3C3E6E6E6E6F5E6F5E6E6E6E6E6E6E6E6E6E6E676E6E676E6E6E6E6E6E6E676E6E6E6E6E6E6
310
E6E6E6E6E6E6E6E6E6E6E6E6E6E6E6E6E6E6E6E6E6E676E6E6E6E6E6E6E676E6E6E6E6E6E6E6E6E67676E6E6E6E6E6E6E6E6E6E6E6E6E6E6E6E6E6E6E6E6E6E6E6E6E6E6E6E6E6E6E6F5F52DE6E6E6E6E6E6E6E6E6E6E6E6E6E6E6E6E6E6E6E6E6E6E6E6E6E6E6E6E62DF5F52DE6E6E6E6E6E6E6E6E6E6E6E6E6E6BEE6E6E6
310
E6E6E6E6E6E6E6E6E6E6E6E62DF52DE6E6E6E6E6E6E6E6E6E6E6E6E6E6E6E6E6E6E6E6E6E6E6E6E6E6E6E6E6E62DF5E6E6E6E6E6E6E6E6E6E6E6E6E6E6E6E6E6E6E6E6F5DCE6F52D2DDCE6F5E6E6E6E6E628E6E6E6E6E6E6E6E6E6C3C3E6E6E6E6F5E6F5E6E6E6E6E6E6E6E6E6E6E676E6E676E6E6E6E6E6E6E676E6E6E6E6
310
E6E6E6E6E6E6E6E6E6E6E6E6E6E6E6E6E6E6E6E6E6E6E6E676E6E6E6E6E6E6E676E6E6E6E6E6E6E6E6E67676E6E6E6E6E6E6E6E6E6E6E6E6E6E6E6E6E6E6E6E6E6E6E6E6E6E6E6E6E6E6E6F5F52DE6E6E6E6E6E6E6E6E6E6E6E6E6E6E6E6E6E6E6E6E6E6E6E6E6E6E6E6E62DF5F52DE6E6E6E6E6E6E6E6E6E6E6E6E6E6BEE6
310
E6E6E6E6E6E6E6E6E6E6E6E6E6E62DF52DE6E6E6E6E6E6E6E6E6E6E6E6E6E6E6E6E6E6E6E6E6E6E6E6E6E6E6E6E6E62DF5E6E6E6E6E6E6E6E6E6E6E6E6E6E6E6E6E6E6E6E6F5DCE6F52D2DDCE6F5E6E6E6E6E628E6E6E6E6E6E6E6E6E6C3C3E6E6E6E6F5E6F5E6E6E6E6E6E6E6E6E6E6E676E6E676E6E6E6E6E6E6E676E6E6
310
E6E6E6E6E6E6E6E6E6E6E6E6E6E6E6E6E6E6E6E6E6E6E6E6E6E676E6E6E6E6E6E6E676E6E6E6E6E6E6E6E6E67676E6E6E6E6E6E6E6E6E6E6E6E6E6E6E6E6E6E6E6E6E6E6E6E6E6E6E6E6E6E6E6F5F52DE6E6E6E6E6E6E6E6E6E6E6E6E6E6E6E6E6E6E6E6E6E6E6E6E6E6E6E6E62DF5F52DE6E6E6E6E6E6E6E6E6E6E6E6E6E6
310
BEE6E6E6E6E6E6E6E6E6E6E6E6E6E6E62DF52DE6E6E6E6E6E6E6E6E6E6E6E6E6E6E6E6E6E6E6E6E6E6E6E6E6E6E6E6E6E62DF5E6E6E6E6E6E6E6E6E6E6E6E6E6E6E6E6E6E6E6E6F5DCE6F52D2DDCE6F5E6E6E6E6E628E6E6E6E6E6E6E6E6E6C3C3E6E6E6E6F5E6F5E6E6E6E6E6E6E6E6E6E6E676E6E676E6E6E6E6E6E6E676
310
E6E6E6E6E6E6E6E6E6E6E6E6E6E6E6E6E6E6E6E6E6E6E6E6E6E6E6E676E6E6E6E6E6E6E676E6E6E6E6E6E6E6E6E67676E6E6E6E6E6E6E6E6E6E6E6E6E6E6E6E6E6E6E6E6E6E6E6E6E6E6E6E6E6E6E6F5F52DE6E6E6E6E6E6E6E6E6E6E6E6E6E6E6E6E6E6E6E6E6E6E6E6E6E6E6E6E62DF5F52DE6E6E6E6E6E6E6E6E6E6E6E6
310
E6E6BEE6E6E6E6E6E6E6E6E6E6E6E6E6E6E62DF52DE6E6E6E6E6E6E6E6E6E6E6E6E6E6E6E6E6E6E6E6E6E6E6E6E6E6E6E6E6E62DF5E6E6E6E6E6E6E6E6E6E6E6E6E6E6E6E6E6E6E6E6F5DCE6F52D2DDCE6F5E6E6E6E6E628E6E6E6E6E6E6E6E6E6C3C3E6E6E6E6F5E6F5E6E6E6E6E6E6E6E6E6E6E676E6E676E6E6E6E6E6E6
310
E676E6E6E6E6E6E6E6E6E6E6E6E6E6E6E6E6E6E6E6E6E6E6E6E6E6E6E6E676E6E6E6E6E6E6E676E6E6E6E6E6E6E6E6E67676E6E6E6E6E6E6E6E6E6E6E6E6E6E6E6E6E6E6E6E6E6E6E6E6E6E6E6E6E6E6E6F5F5F5E6E6E6E6E6E6E6E6E6E6E6E6E6E6E6E6E6E6E6E6E6E6E6E6E6E6E6E6E62DF5F52DE6E6E6E6E6E6E6E6E6E6
310
E6E6E6E6BEE6E6E6E6E6E6E6E6E6E6E6E6E6E62DF5F52DE6E6E6E6E6E6E6E6E6E6E6E6E6E6E6E6E6E6E6E6E6E6E6E6E6E6E6E6E6E62DF5E6E6E6E6E6E6E6E6E6E6E6E6E6E6E6E6E6E6E6E6F5DCE6F52D2DDCE6F5E6E6E6E6E628E6E6E6E6E6E6E6E6E6C32DE6E6E6E6F5E6F5E6E6E6E6E6E6E6E6E6E6E676E6E676E6E6E6E6
310
E6E6E676E6E6E6E6E6E6E6E6E6E6E6E6E6E6E6E6E6E6E6E6E6E6E6E6E6E6E6E676E6E6E6E6E6E6E676E6E6E6E6E6E6E6E6E67676E6E6E6E6E6E6E6E6E6E6E6E6E6E6E6E6E6E6E6E6E6E6E6E6E6E6E6E6E6E6E6F5F5F5F5F5F5F5F5F5F5F5F5F5F5F5F5F5F5F5F5F5F5F5F5F5F5F5F5F5F5F52DF5F5F5F52D2D2D2D2D2D2D2D
310
2D2D2D2D2D2D2D2D2D2D2D2D2D2D2D2D2D2D2D2DF5F5F5F5F5F52DF5F5F5F5F5F5F5F5F5F5F5F5F5F5F5F5F5F5F5F5F5F5F5F5F5F52D2DF5F5E6E6E6E6E6E6E6E6E6E6E6E6E6E6E6E6E6E6E6E6F5DCDCF52DDCDCE6F5E6E6E6E6E62828E6E6E6E6E6E6E6E6C32DF5F5F5F5F5E6F5E6E6E6E6E6E6E6E6E6E6E676E6E676E6E6
310
E6E6E6E6E676E6E6E6E6E6E6E6E6E6E6E6E6E6E6E6E6E6E6E6E6E6E6E6E6E6E6E6E676E6E6E6E6E6E6E676E6E6E6E6E6E6E6E6E67676E6E6E6E6E6E6E6E6E6E6E6E6E6E6E6E6E6E6E6E6E6E6E6E6E6E6E6E6E6E6E6F5F5E6E6E6E6E6E6E6E6E6E6E6E6E6E6E6E6E6E6E6E6E6E6E6E6E6E6E6E6E6E6E6BEE6E6E6E6E6E6E6E6
310
E6E6E6E6E6E6E6E6BEE6E6E6E6E6E6E6E6E6E6E6E6E6E6E6E6BEE6E6E6E6E6E6E6E6E6E6E6E6E6E6E6E6E6E6E6E6E6E6E6E6E6E6E6E6E6E6E6E6F5E6E6E6E6E6E6E6E6E6E6E6E6E6E6E6E6E6E6E6E6F5F5F5F5F5DCDCE6F5E6E6E6E6E62828E6E6E6E6E6E6E6E6F5F5F5F5F5F5F5F5F5E6E6E6E6E6E6E6E6E6E6E676E6E676
310
E6E6E6E6E6E6E676E6E6E6E6E6E6E6E6E6E6E6E6E6E6E6E6E6E6E6E6E6E6E6E6E6E6E6E676E6E6E6E6E6E6E676E6E6E6E6E6E6E6E6E67676E6E6E6E6E6E6E6E6E6E6E6E6E6E6E6E6E6E6E6E6E6E6E6E6E6E6E6E6E6E6E6F5F5F5F5F5F5F5F5F5F5F5F5F5F5F5F5F5F5F5F5F5F5F5F5F5F5F5F5F5F5F5F5F5BEF5F5F5F5F5F5
310
F5F5F5F5F5F5F5F5F5F5BEF5F5F5F5F5F5F5F5F5F5F5F5F5F5F5F5BEF5F5F5F5F5F5F5F5F5F5F5F5F5F5F5F5F5F5F5F5F5F5F5F5F5F5F5F5F5F5F5F5F5E6E6E6E6E6E6E6E6E6E6E6E6E6E6E6E6E6E6E6E6E6E6E6E6E6DCDCDC2828282828282828E6E6E6E6E6E6E6E6E6E6E6E6E6E6F5F52DE6E6E6E6E6E6E6E6E6E6E676E6
310
E676E6E6E6E6E6E6E676E6E6E6E6E6E6E6E6E6E6E6E6E6E6E6E6E6E6E6E6E6E6E6E6E6E6E6E676E6E6E6E6E6E6E676E6E6E6E6E6E6E6E6E67676E6E6E6E6E6E6E6E6E6E6E6E6E6E6E6E6E6E6E6E6E6E6E6E6E6E6E6E6E6E6E6E6E6E6E6E6E6E6E6E6E6E6E6E6E6E6E6E6E6E6E6E6E6E6E6E6E6E6E6E6E6E6E6E6BEE6E6E6E6
310
E6E6E6E6E6E6E6E6E6E6E6E6BEE6E6E6E6E6E6E6E6E6E6E6E6E6E6E6E6BEE6E6E6E6E6E6E6E6E6E6E6E6E6E6E6E6E6E6E6E6E6E6E6E6E6E6E6E6E6E6E6E6E6E6E6E6E6E6E6E6E6E6E6E6E6E6E6E6E6E6E6E6E6E6E6E6E6E6E6E6E6E6E6E6E6E6E6E6E6E6E6E6E6E6E6E6E6E6E6E6E6E6E6E6E6E6E6E6E6E6E6E6E6E6E6E6E6
310
76E6E676E6E6E6E6E6E6E676E6E6E6E6E6E6E6E6E6E6E6E6E6E6E6E6E6E6E6E6E6E6E6E6E6E6E6E676E6E6E6E6E6E6E676E6E6E6E6E6E6E6E6E67676E6E6E6E6E6E6E6E6E6E6E6E6E6E6E6E6E6E6E6E6E6E6E6E6E6E6E6E6E6E6E6E6E6E6E6E6E6E6E6E6E6E6E6E6E6E6E6E6E6E6E6E6E6E6E6E6E6E6E6E6E6E6E6E6BEE6E6
310
E6E6E6E6E6E6E6E6E6E6E6E6E6E6F5E6E6E6E6E6E6E6E6E6E6E6E6E6E6E6E6BEE6E6E6E6E6E6E6E6E6E6E6E6E6E6E6E6E6E6E6E6E6E6E6E6E6E6E6E6E6E6E6E6E6E6E6E6E6E6E6E6E6E6E6E6E6E6E6E6E6E6E6E6E6E6E6E6E6E6E6E6E6E6E6E6E6E6E6E6E6E6E6E6E6E6E6E6E6E6E6E6E6E6E6E6E6E6E6E6E6E6E6E6E6E6E6
310
E6E676E6E676E6E6E6E6E6E6E676E6E6E6E6E6E6E6E6E6E6E6E6E6E6E6E6E6E6E6E6E6E6E6E6E6E6E6E676E6E6E6E6E6E6E676E6E6E6E6E6E6E6E6E67676E6E6E6E6E6E6E6E6E6E6E6E6E6E6E6E6E6E6E6E6E6E6E6E6E6E6E6E6E6E6E6E6E6E6E6E6E6E6E6E6E6E6E6E6E6E6E6E6E6E6E6E6E6E6E6E6E6E6E6E6E6E6E6E6E6
310
E6E6E6E6E6E6E6E6E6E6E6E6E6E6F5C3C3F5E6E6E6E6E6E6E6E6E6E6E6E6E6E6E6E6E6E6E6E6E6E6E6E6E6E6E6E6E6E6E6E6E6E6E6E6E6E6E6E6E6E6E6E6E6E6E6E6E6E6E6E6E6E6E6E6E6E6E6E6E6E6E6E6E6E6E6E6E6E6E6E6E6E6E6E6E6E6E6E6E6E6E6E6E6E6E6E6E6E6E6E6E6E6E6E6E6E6E6E6E6E6E6E6E6E6E6E6E6
310
E6E6E6E676E6E676E6E6E6E6E6E6E676E6E6E6E6E6E6E6E6E6E6E6E6E6E6E6E6E6E6E6E6E6E6E6E6E6E6E6E676E6E6E6E6E6E6E676E6E6E6E6E6E6E6E6E67676E6E6E6E6E6E6E6E6E6E6E6E6E6E6E6E6E6E6E6E6E6E6E6E6E6E6E6E6E6E6E6E6E6E6E6E6E6E6E6E6E6E6E6E6E6E6E6E6E6E6E6E6E6E6E6E6E6E6E6E6E6E6E6
310
E6E6E6E6E6E6E6E6E6E6E6E6E6E6F5F5F5F5F5F5E6E6E6E6E6E6E6E6E6E6E6E6E6E6E6E6E6E6E6E6E6E6E6E6E6E6E6E6E6E6E6E6E6E6E6E6E6E6E6E6E6E6E6E6E6E6E6E6E6E6E6E6E6E6E6E6E6E6E6E6E6E6E6E6E6E6E6E6E6E6E6E6E6E6E6E6E6E6E6E6E6E6E6E6E6E6E6E6E6E6E6E6E6F5F5F5F5F5F5F5F5F5E6E6E6E6E6
310
E6E6E6E6E6E676E6E676E6E6E6E6E6E6E676E6E6E6E6E6E6E6E6E6E6E6E6E6E6E6E6E6E6E6E6E6E6E6E6E6E6E6E676E6E6E6E6E6E6E676E6E6E6E6E6E6E6E6E67676E6E6E6E6E6E6E6E6E6E6E6E6E6E6E6E6E6E6E6E6E6E6E6E6E6E6E6E6E6E6E6E6E6E6E6E6E6E6E6E6E6E6E6E6E6E6E6E6E6E6E6E6E6E6E6E6E6E6E6E6E6
310
E6E6E6E6E6E6E6E6E6E6E6E6E6E6E6E6E6E6E6E6F5E6E6E6E6E6E6E6E6E6E6E6E6E6E6E6E6E6E6E6E6E6E6E6E6E6E6E6E6E6E6E6E6E6E6E6E6E6E6E6E6E6E6E6E6E6E6E6E6E6E6E6E6E6E6E6E6E6E6E6E6E6E6E6E6E6E6E6E6E6E6E6E6E6E6E6E6E6E6E6E6E6E6E6E6E6E6E6E6E6E6E6E6E6E6F5F5F5F5F5F5F5F5E6E6E6E6
310
E6E6E6E6E6E6E6E676E6E676E6E6E6E6E6E6E676E6E6E6E6E6E6E6E6E6E6E6E6E6E6E6E6E6E6E6E6E6E6E6E6E6E6E6E676E6E6E6E6E6E6E676E6E6E6E6E6E6E6E6E67676E6E6E6E6E6E6E6E6E6E6E6E6E6E6E6E6E6E6E6E6E6E6E6E6E6E6E6E6E6E6E6E6E6E6E6E6E6E6E6E6E6E6E6E6E6E6E6E6E6E6E6E6E6E6E6E6E6E6E6
310
E6E6E6E6E6E6E6E6E6E6E6E6E6E6E6E6E6E6E6E6E6E6E6E6E6E6E6E6E6E6E6E6E6E6E6E6E6E6E6E6E6E6E6E6E6E6E6E6E6E6E6E6E6E6E6E6E6E6E6E6E6E6E6E6E6E6E6E6E6E6E6E6E6E6E6E6E6E6E6E6E6E6E6E6E6E6E6E6E6E6E6E6E6E6E6E6E6E6E6E6E6E6E6E6E6E6E6E6E6E6E6E6E6E6E6E6E6F5F5E6F5F5F5F5F5E6E6
310
E6E6E6E6E6E6E6E6E6E676E6E676E6E6E6E6E6E6E676E6E6E6E6E6E6E6E6E6E6E6E6E6E6E6E6E6E6E6E6E6E6E6E6E6E6E6E676E6E6E6E6E6E6E676E6E6E6E6E6E6E6E6767676E6E6E6E6E6E6E6E6E6E6E6E6E6E6E6E6E6E6E6E6E6E6E6E6E6E6E6E6E6E6E6E6E6E6E6E6E6E6E6E6E6E6E6E6E6E6E6E6E6E6E6E6E6E6E6E6E6
310
E6E6E6E6E6E6E6E6E6E6E6E6E6E6E6E6E6E6E6E6E6E6E6E6E6E6E6E6E6E6E6E6E6E6E6E6E6E6E6E6E6E6E6E6E6E6E6E6E6E6E6E6E6E6E6E6E6E6E6E6E6E6E6E6E6E6E6E6E6E6E6E6E6E6E6E6E6E6E6E6E6E6E6E6E6E6E6E6E6E6E6E6E6E6E6E6E6E6E6E6E6E6E6E6E6E6E6E6E6E6E6E6E6E6E6E6E6E6E6E6E6E6E6E6E6E6E6
310
E6E6E6E6E6E6E6E6E6E6E6E67676E676E6E6E6E6E6E6E676E6E6E6E6E6E6E6E6E6E6E6E6E6E6E6E6E6E6E6E6E6E6E6E6E6E6E6E676E6E6E6E6E6E6E676E6E6E6E6E6E6E6E6E67676E6E6E6E6E6E6E6E6E6E6E6E6E6E6E6E6E6E6E6E6E6E6E6E6E6E6E6E6E6E6E6E6E6E6E6E6E6E6E6E6E6E6E6E6E6E6E6E6E6E6E6E6E6E6E6
310
E6E6E6E6E6E6E6E6E6E6E6E6E6E6E6E6E6E6E6E6E6E6E6E6E6E6E6E6E6E6E6E6E6E6E6E6E6E6E6E6E6E6E6E6E6E6E6E6E6E6E6E6E6E6E6E6E6E6E6E6E6E6E6E6E6E6E6E6E6E6E6E6E6E6E6E6E6E6E6E6E6E6E6E6E6E6E6E6E6E6E6E6E6E6E6E6E6E6E6E6E6E6E6E6E6E6E6E6E6E6E6E6E6E6E6E6E6E6E6E6E6E6E6E6E6E6E6
310
E6E6E6E6E6E6E6E6E6E6E6E6E6E676E6E676E6E6E6E6E6E6E676E6E6E6E6E6E6E6E6E6E6E6E6E6E6E6E6E6E6E6E6E6E6E6E6E6E6E6E676E6E6E6E6E6E6E676E6E6E6E6E6E6E6E6E67676E6E6E6E6E6E6E6E6E6E6E6E6E6E6E6E6E6E6E6E6E6E6E6E6E6E6E6E6E6E6E6E6E6E6E6E6E6E6E6E6E6E6E6E6E6E6E6E6E6E6E6E6E6
310
E6E6E6E6E6E6E6E6E6E6E6E6E6E6E6E6E6E6E6E6E6E6E6E6E6E6E6E6E6E6E6E6E6E6E6E6E6E6E6E6E6E6E6E6E6E6E6E6E6E6E6E6E6E6E6E6E6E6E6E6E6E6E6E6E6E6E6E6E6E6E6E6E6E6E6E6E6E6E6E6E6E6E6E6E6E6E6E6E6E6E6E6E6E6E6E6E6E6E6E6E6E6E6E6E6E6E6E6E6E6E6E6E6E6E6E6E6E6E6E6E6E6E6E6E6E6E6
310
E6E6E6E6E6E6E6E6E6E6E6E6E6E6E6E676E6E676E6E6E6E6E6E6E676E6E6E6E6E6E6E6E6E6E6E6E6E6E6E6E6E6E6E6E6E6E6E6E6E6E6E6E676E6E6E6E6E6E6E676E6E6E6E6E6E6E6E6E67676E6E6E6E6E6E6E6E6E6E6E6E6E6E6E6E6E6E6E6E6E6E6E6E6E6E6E6E6E6E6E6E6E6E6E6E6E6E6E6E6E6E6E6E6E6E6E6E6E6E6E6
310
E6E6E6E6E6E6E6E6E6E6E6E6E6E6E6E6E6E6E6E6E6E6E6E6E6E6E6E6E6E6E6E6E6E6E6E6E6E6E6E6E6E6E6E6E6E6E6E6E6E6E6E6E6E6E6E6E6E6E6E6E6E6E6E6E6E6E6E6E6E6E6E6E6E6E6E6E6E6E6E6E6E6E6E6E6E6E6E6E6E6E6E6E6E6E6E6E6E6E6E6E6E6E6E6E6E6E6E6E6E6E6E6E6E6E6E6E6E6E6E6E6E6E6E6E6E6E6
310
E6E6E6E6E6E6E6E6E6E6E6E6E6E6E6E6E6E676E6E676E6E6E6E6E6E6E676E6E6E6E6E6E6E6E6E6E6E6E6E6E6E6E6E6E6E6E6E6E6E6E6E6E6E6E676E6E6E6E6E6E6E676E6E6E6E6E6E6E6E6E67676E6E6E6E6E6E6E6E6E6E6E6E6E6E6E6E6E6E6E6E6E6E6E6E6E6E6E6E6E6E6E6E6E6E6E6E6E6E6E6E6E6E6E6E6E6E6E6E6E6
310
E6E6E6E6E6E6E6E6E6E6E6E6E6E6E6E6E6E6E6E6E6E6E6E6E6E6E6E6E6E6E6E6E6E6E6E6E6E6E6E6E6E6E6E6E6E6E6E6E6E6E6E6E6E6E6E6E6E6E6E6E6E6E6E6E6E6E6E6E6E6E6E6E6E6E6E6E6E6E6E6E6E6E6E6E6E6E6E6E6E6E6E6E6E6E6E6E6E6E6E6E6E6E6E6E6E6E6E6E6E6E6E6E6E6E6E6E6E6E6E6E6E6E6E6E6E6E6
310
E6E6E6E6E6E6E6E6E6E6E6E6E6E6E6E6E6E6E6E676E6E676E6E6E6E6E6E6E676E6E6E6E6E6E6E6E6E6E6E6E6E6E6E6E6E6E6E6E6E6E6E6E6E6E6E6E676E6E6E6E6E6E6E676E6E6E6E6E6E6E6E6E67676E6E6E6E6E6E6E6E6E6E6E6E6E6E6E6E6E6E6E6E6E6E6E6E6E6E6E6E6E6E6E6E6E6E6E6E6E6E6E6E6E6E6E6E6E6E6E6
310
E6E6E6E6E6E6E6E6E6E6E6E6E6E6E6E6E6E6E6E6E6E6E6E6E6E6E6E6E6E6E6E6E6E6E6E6E6E6E6E6E6E6E6E6E6E6E6E6E6E6E6E6E6E6E6E6E6E6E6E6E6E6E6E6E6E6E6E6E6E6E6E6E6E6E6E6E6E6E6E6E6E6E6E6E6E6E6E6E6E6E6E6E6E6E6E6E6E6E6E6E6E6E6E6E6E6E6E6E6E6E6E6E6E6E6E6E6E6E6E6E6E6E6E6E6E6E6
310
E6E6E6E6E6E6E6E6E6E6E6E6E6E6E6E6E6E6E6E6E6E676E6E676E6E6E6E6E6E6E676E6E6E6E6E6E6E6E6E6E6E6E6E6E6E6E6E6E6E6E6E6E6E6E6E6E6E6E676E6E6E6E6E6E6E676E6E6E6E6E6E6E6E6E67676E6E6E6E6E6E6E6E6E6E6E6E6E6E6E6E6E6E6E6E6E6E6E6E6E6E6E6E6E6E6E6E6E6E6E6E6E6E6E6E6E6E6E6E6E6
310
E6E6E6E6E6E6E6E6E6E6E6E6E6E6E6E6E6E6E6E6E6E6E6E6E6E6E6E6E6E6E6E6E6E6E6E6E6E6E6E6E6E6E6E6E6E6E6E6E6E6E6E6E6E6E6E6E6E6E6E6E6E6E6E6E6E6E6E6E6E6E6E6E6E6E6E6E6E6E6E6E6E6E6E6E6E6E6E6E6E6E6E6E6E6E6E6E6E6E6E6E6E6E6E6E6E6E6E6E6E6E6E6E6E6E6E6E6E6E6E6E6E6E6E6E6E6E6
310
E6E6E6E6E6E6E6E6E6E6E6E6E6E6E6E6E6E6E6E6E6E6E6E676E6E676E6E6E6E6E6E6E676E6E6E6E6E6E6E6E6E6E6E6E6E6E6E6E6E6E6E6E6E6E6E6E6E6E6E6E676E6E6E6E6E6E6E676E6E6E6E6E6E6E6E6E67676E6E6E6E6E6E6E6E6E6E6E6E6E6E6E6E6E6E6E6E6E6E6E6E6E6E6E6E6E6E6E6E6E6E6E6E6E6E6E6E6E6E6E6
310
E6E6E6E6E6E6E6E6E6E6E6E6E6E6E6E6E6E6E6E6E6E6E6E6E6E6E6E6E6E6E6E6E6E6E6E6E6E6E6E6E6E6E6E6E6E6E6E6E6E6E6E6E6E6E6E6E6E6E6E6E6E6E6E6E6E6E6E6E6E6E6E6E6E6E6E6E6E6E6E6E6E6E6E6E6E6E6E6E6E6E6E6E6E6E6E6E6E6E6E6E6E6E6E6E6E6E6E6E6E6E6E6E6E6E6E6E6E6E6E6E6E6E6E6E6E6E6
310
E6E6E6E6E6E6E6E6E6E6E6E6E6E6E6E6E6E6E6E6E6E6E6E6E6E676E6E676E6E6E6E6E6E6E676E6E6E6E6E6E6E6E6E6E6E6E6E6E6E6E6E6E6E6E6E6E6E6E6E6E6E6E676E6E6E6E6E6E6E676E6E6E6E6E6E6E6E6E67676E6E6E6E6E6E6E6E6E6E6E6E6E6E6E6E6E6E6E6E6E6E6E6E6E6E6E6E6E6E6E6E6E6E6E6E6E6E6E6E6E6
310
E6E6E6E6E6E6E6E6E6E6E6E6E6E6E6E6E6E6E6E6E6E6E6E6E6E6E6E6E6E6E6E6E6E6E6E6E6E6E6E6E6E6E6E6E6E6E6E6E6E6E6E6E6E6E6E6E6E6E6E6E6E6E6E6E6E6E6E6E6E6E6E6E6E6E6E6E6E6E6E6E6E6E6E6E6E6E6E6E6E6E6E6E6E6E6E6E6E6E6E6E6E6E6E6E6E6E6E6E6E6E6E6E6E6E6E6E6E6E6E6E6E6E6E6E6E6E6
310
E6E6E6E6E6E6E6E6E6E6E6E6E6E6E6E6E6E6E6E6E6E6E6E6E6E6E6E676E6E676E6E6E6E6E6E6E676E6E6E6E6E6E6E6E6E6E6E6E6E6E6E6E6E6E6E6E6E6E6E6E6E6E6E6E676E6E6E6E6E6E6E676E6E6E6E6E6E6E6E6E67676E6E6E6E6E6E6E6E6E6E6E6E6E6E6E6E6E6E6E6E6E6E6E6E6E6E6E6E6E6E6E6E6E6E6E6E6E6E6E6
310
E6E6E6E6E6E6E6E6E6E6E6E6E6E6E6E6E6E6E6E6E6E6E6E6E6E6E6E6E6E6E6E6E6E6E6E6E6E6E6E6E6E6E6E6E6E6E6E6E6E6E6E6E6E6E6E6E6E6E6E6E6E6E6E6E6E6E6E6E6E6E6E6E6E6E6E6E6E6E6E6E6E6E6E6E6E6E6E6E6E6E6E6E6E6E6E6E6E6E6E6E6E6E6E6E6E6E6E6E6E6E6E6E6E6E6E6E6E6E6E6E6E6E6E6E6E6E6
310
E6E6E6E6E6E6E6E6E6E6E6E6E6E6E6E6E6E6E6E6E6E6E6E6E6E6E6E6E6E676E6E676E6E6E6E6E6E6E676E6E6E6E6E6E6E6E6E6E6E6E6E6E6E6E6E6E6E6E6E6E6E6E6E6E6E6E676E6E6E6E6E6E6E676E6E6E6E6E6E6E6E6E67676E6E6E6E6E6E6E6E6E6E6E6E6E6E6E6E6E6E6E6E6E6E6E6E6E6E6E6E6E6E6E6E6E6E6E6E6E6
310
E6E6E6E6E6E6E6E6E6E6E6E6E6E6E6E6E6E6E6E6E6E6E6E6E6E6E6E6E6E6E6E6E6E6E6E6E6E6E6E6E6E6E6E6E6E6E6E6E6E6E6E6E6E6E6E6E6E6E6E6E6E6E6E6E6E6E6E6E6E6E6E6E6E6E6E6E6E6E6E6E6E6E6E6E6E6E6E6E6E6E6E6E6E6E6E6E6E6E6E6E6E6E6E6E6E6E6E6E6E6E6E6E6E6E6E6E6E6E6E6E6E6E6E6E6E6E6
310
E6E6E6E6E6E6E6E6E6E6E6E6E6E6E6E6E6E6E6E6E6E6E6E6E6E6E6E6E6E6E6E676E6E676E6E6E6E6E6E6E676E6E6E6E6E6E6E6E6E6E6E6E6E6E6E6E6E6E6E6E6E6E6E6E6E6E6E6E676E6E6E6E6E6E6E676E6E6E6E6E6E6E6E6E67676E6E6E6E6E6E6E6E6E6E6E6E6E6E6E6E6E6E6E6E6E6E6E6E6E6E6E6E6E6E6E6E6E6E6E6
310
E6E6E6E6E6E6E6E6E6E6E6E6E6E6E6E6E6E6E6E6E6E6E6E6E6E6E6E6E6E6E6E6E6E6E6E6E6E6E6E6E6E6E6E6E6E6BEE6E6E6E6E6E6E6E6E6E6E6E6E6E6E6E6E6E6E6E6E6E6E6E6E6E6E6E6E6E6E6E6E6E6E6E6E6E6E6E6E6E6E6E6E6E6E6E6E6E6E6E6E6E6E6E6E6E6E6E6E6E6E6E6E6E6E6E6E6E6E6E6E6E6E6E6E6E6E6E6
310
E6E6E6E6E6E6E6E6E6E6E6E6E6E6E6E6E6E6E6E6E6E6E6E6E6E6E6E6E6E6E6E6E6E676E6E676E6E6E6E6E6E6E676E6E6E6E6E6E6E6E6E6E6E6E6E6E6E6E6E6E6E6E6E6E6E6E6E6E6E6E676E6E6E6E6E6E6E676E6E6E6E6E6E6E6E6E67676E6E6E6E6E6E6E6E6E6E6E6E6E6E6E6E6E6E6E6E6E6E6E6E6E6E6E6E6E6E6E6E6E6
310
E6E6E6E6E6E6E6E6E6E6E6E6E6E6E6E6E6E6E6E6E6E6E6E6E6E6E6E6E6E6E6E6E6E6E6E6E6E6E6E6E6E6E6E6E6E6E6E6BEE6E6E6E6E6E6E6E6E6E6E6E6E6E6E6E6E6E6E6E6E6E6E6E6E6E6E6E6E6E6E6E6E6E6E6E6E6E6E6E6E6E6E6E6E6E6E6E6E6E6E6E6E6E6E6E6E6E6E6E6E6E6E6E6E6E6E6E6E6E6E6E6E6E6E6E6E6E6
310
E6E6E6E6E6E6E6E6E6E6E6E6E6E6E6E6E6E6E6E6E6E6E6E6E6E6E6E6E6E6E6E6E6E6E6E676E6E676E6E6E6E6E6E6E676E6E6E6E6E6E6E6E6E6E6E6E6E6E6E6E6E6E6E6E6E6E6E6E6E6E6E6E676E6E6E6E6E6E6E676E6E6E6E6E6E6E6E6E67676E6E6E6E6E6E6E6E6E6E6E6E6E6E6E6E6E6E6E6E6E6E6E6E6E6E6E6E6E6E6E6
310
E6F5F5F5F5F5F5F5F5F5F5F5F5F5F5F5F5F5F5F5F5F5F5F5F5F5F5F5F5F5F5F5F5F5F5F5F5F5F5F5F5F5F5F5F5DCF5F5F5F5BEF5F5F5F5F5DCF5F5F5F5F5F5F5F5F5F5F5F5F5F5F5F5F5F5F5F5F5F5F5F5F5F5F5F5F5F5F5F5F5F5F5F5F5F5F5F5F5F5F528282828282828E6E6E6E6E6E6E6E6E6E6E6E6E6E6E6E6E6E6E6E6
310
E6E6E6E6E6E6E6E6E6E6E6E6E6E6E6E6E6E6E6E6E6E6E6E6E6E6E6E6E6E6E6E6E6E6E6E6E6E676E6E676E6E6E6E6E6E6E676E6E6E6E6E6E6E6E6E6E6E6E6E6E6E6E6E6E6E6E6E6E6E6E6E6E6E6E676E6E6E6E6E6E6E676E6E6E6E6E6E6E6E6E67676E6E6E6E6E6E6E6E6E6E6E6E6E6E6E6E6E6E6E6E6E6E6E6E6E6E6E6E6E6
310
E6E6E6F5DCDCDCDCDCDCDCDCDCDCDCDCDCDCDCDCDCDCDCDCDCDCDCDCDCDCDCDCDCDCDCE6E6DCDCDCDCDCDCDCDCDCDCDCDCDCDCDCBEDCDCDCDCDCDCDCDCDCDCDCDCDCDCDCE6E6DCDCDCDCDCDCDCDCDCDCDCDCDCDCDCDCDCDCDCDCDCDCDCDCDCDCDCDCDCDCDCE6F5E6E6E6E6E628E6E6E6E6E6E6E6E6E6E6E6E6E6E6E6E6E6E6
310
E6E6E6E6E6E6E6E6E6E6E6E6E6E6E6E6E6E6E6E6E6E6E6E6E6E6E6E6E6E6E6E6E6E6E6E6E6E6E6E676E6E676E6E6E6E6E6E6E676E6E6E6E6E6E6E6E6E6E6E6E6E6E6E6E6E6E6E6E6E6E6E6E6E6E6E6E676E6E6E6E6E6E6E676E6E6E6E6E6E6E6E6E67676E6E6E6E6E6E6E6E6E6E6E6E6E6E6E6E6E6E6E6E6E6E6E6E6E6E6E6
310
E6E6E6E6E6F5DCE6E6E6E6E6E6E6E6E6E6E6E6E6E6E6E6E6E6E6E6E6E6E6E6E6E6E6E6E6DCE6E6DCE6E6E6E6E6E6E6E6E6E6E6E6E6E6BEE6E6E6E6E6E6E6E6E6E6E6E6E6E6E6DCE6DCE6E6E6E6E6E6E6E6E6E6E6E6E6E6E6E6E6E6E6E6E6E6E6E6E6E6E6E6E6DCDCF5E6E6E6E62828E6E6E6E6E6E6E6E6E6E6E6E6E6E6E6E6
310
E6E6E6E6E6E6E6E6E6E6E6E6E6E6E6E6E6E6E6E6E6E6E6E6E6E6E6E6E6E6E6E6E6E6E6E6E6E6E6E6E6E676E6E676E6E6E6E6E6E6E676E6E6E6E6E6E6E6E6E6E6E6E6E6E6E6E6E6E6E6E6E6E6E6E6E6E6E6E676E6E6E6E6E6E6E676E6E6E6E6E6E6E6E6E67676E6E6E6E6E6E6E6E6E6E6E6E6E6E6E6E6E6E6E6E6E6E6E6E6E6
310
E6E6E6E6E6E6F5F5DCF5F5F5F5F5F5F5F5F5F5F5F5F5F5F5F5F5F5F5F5F5F5F5F5F5F5F5F5F5DCF5F5DCF5F5F5F5F5F5F5F5F5F5F5F5F5F5BEF5F5F5F5F5F5F5F5F5F5F5F5F5F5F5DCF5DCF5F5F5F5F5F5F5F5F5F5F5F5F5F5F5F5F5F5F5F5F5F5F5F5F5F5F5F5F5F5DCF5E6E6E6282828E6E6E6E6E6E6E6E6E6E6E6E6E6E6
310
E6E6E6E6E6E6E6E6E6E6E6E6E6E6E6E6E6E6E6E6E6E6E6E6E6E6E6E6E6E6E6E6E6E6E6E6E6E6E6E6E6E6E6E676E6E676E6E6E6E6E6E6E676E6E6E6E6E6E6E6E6E6E6E6E6E6E6E6E6E6E6E6E6E6E6E6E6E6E6E6E676E6E6E6E6E6E6E676E6E6E6E6E6E6E6E6E67676E6E6E6E6E6E6E6E6E6E6E6E6E6E6E6E6E6E6E6E6E6E6E6
310
E6E6E6E6E6E6E6E6F5E6DCE6E6E6E6E6E6E6E6E6E6E6E6E6E6E6E6E6E6E6E6E6E6E6E6E6E6E6E6E6E6DCDCE6E6E6E6E6E6E6E6E6E6E6E6E6E6E6BEE6E6E6E6E6E6E6E6E6E6E6E6E6E6E6DCE6DCE6E6E6E6E6E6E6E6E6E6E6E6E6E6E6E6E6E6E6E6E6E6E6E6E6E6E6E6E6E6DCF5E6E6E6282828E6E6E6E6E6E6E6E6E6E6E6E6
310
E6E6E6E6E6E6E6E6E6E6E6E6E6E6E6E6E6E6E6E6E6E6E6E6E6E6E6E6E6E6E6E6E6E6E6E6E6E6E6E6E6E6E6E6E6E676E6E676E6E6E6E6E6E6E676E6E6E6E6E6E6E6E6E6E6E6E6E6E6E6E6E6E6E6E6E6E6E6E6E6E6E6E676E6E6E6E6E6E6E676E6E6E6E6E6E6E6E6767676E6E6E6E6E6E6E6E6E6E6E6E6E6E6E6E6E6E6E6E6E6
310
E6E6E6E6E6E6E6E6E6E6F5E6DCE6E6E6E6E6E6E6E6E6E6E6E6E6E6E6E6E6E6E6E6E6E6E6E6E6E6E6E6E6E6DCDCE6E6E6E6E6E6E6E6E6E6E6E6E6E6E6BEE6E6E6E6E6E6E6E6E6E6E6E6E6E6E6DCE6DCE6E6E6E6E6E6E6E6E6E6E6E6E6E6E6E6E6E6E6E6E6E6E6E6E6E6E6E6E6E6DCF5E6E6E6282828E6E6E6E6E6E6E6E6E6E6
310
E6E6E6E6E6E6E6E6E6E6E6E6E6E6E6E6E6E6E6E6E6E6E6E6E6E6E6E6E6E6E6E6E6E6E6E6E6E6E6E6E6E6E6E6E6E6E6E676767676E6E6E6E6E6E6E676E6E6E6E6E6E6E6E6E6E6E6E6E6E6E6E6E6E6E6E6E6E6E6E6E6E6E6E676E6E6E6E6E6E6E676E6E6E6E6E6E6E6E6767676E6E6E6E6E6E6E6E6E6E6E6E6E6E6E6E6E6E6E6
310
E6E6E6E6E6E6E6E6E6E6E6E6DCDCDCF5F5F5F5F5F5F5F5F5F5F5F5F5F5F5F5F5F5F5F5F5F5F5F5F5F5F5F5F5F5DCDCF5F5F5F5F5F5F5F5F5F5F5F5F5F5F5BEF5F5F5F5F5F5F5F5F5F5F5F5F5F5F5DCDCDCF5F5F5F5F5F5F5F5F5F5F5F5F5F5F5F5F5F5F5F5F5F5F5F5F5F5F5F5F5F5DCF5E6E6E6E62828E6E6E6E6E6E6E6E6
310
E6E6E6E6E6E6E6E6E6E6E6E6E6E6E6E6E6E6E6E6E6E6E6E6E6E6E6E6E6E6E6E6E6E6E6E6E6E6E6E6E6E6E6E6E6E6E6E6E6E676767676E6E6E6E6E6E6E676E6E6E6E6E6E6E6E6E6E6E6E6E6E6E6E6E6E6E6E6E6E6E6E6E6E6E6E676E6E6E6E6E6E6E676E6E6E6E6E6E6E6E6E67676E6E6E6E6E6E6E6E6E6E6E6E6E6E6E6E6E6
310
E6E6E6E6E6E6E6E6E6E6E6E6E6E6DCE6E6E6E6E6E6E6E6E6E6E6E6E6E6E6E6E6E6E6E6E6E6E6E6E6E6E6E6E6E6E6E6E6E6E6E6E6E6E6E6E6E6E6E6E6E6E6E6E6BEE6E6E6E6E6E6E6E6E6E6E6E6E6E6E6E6E6E6E6E6E6E6E6E6E6E6E6E6E6E6E6E6E6E6E6E6E6E6E6E6E6E6E6E6E6E6E6E6E6F5E6E6E6E6E628E6E6E6E6E6E6
310
E6E6E6E6E6E6E6E6E6E6E6E6E6E6E6E6E6E6E6E6E6E6E6E6E6E6E6E6E6E6E6E6E6E6E6E6E6E6E6E6E6E6E6E6E6E6E6E6E6E6E6E676E6E676E6E6E6E6E6E6E676E6E6E6E6E6E6E6E6E6E6E6E6E6E6E6E6E6E6E6E6E6E6E6E6E6E6E6E676E6E6E6E6E6E6E676E6E6E6E6E6E6E6E6E67676E6E6E6E6E6E6E6E6E6E6E6E6E6E6E6
310
E6E6E6E6E6E6E6E6E6E6E6E6E6E6E6E628F5F5F5F5F5F5F5F5F5F5F5F5F5F5F5F5F5F5F5F5F5F5F5F5F5F5F5F5F5F5F5F5F5F5F5F5F5F5F5F5F5F5F5F5F5F5F5F5F5F5F5F5F5F5F5F5F5F5F5F5F5F5F5F5F5F5F5F5F5F5F5F5F5F5F5F5F5F5F5F5F5F5F5F5F5F5F5F5F5F5F5F5F5F5F5F5F5F5F528282828282828E6E6E6E6
310
E6E6E6E6E6E6E6E6E6E6E6E6E6E6E6E6E6E6E6E6E6E6E6E6E6E6E6E6E6E6E6E6E6E6E6E6E6E6E6E6E6E6E6E6E6E6E6E6E6E6E6E6E6E676E6E676E6E6E6E6E6E6E676E6E6E6E6E6E6E6E6E6E6E6E6E6E6E6E6E6E6E6E6E6E6E6E6E6E6E6E676E6E6E6E6E6E6E676E6E6E6E6E6E6E6E6E67676E6E6E6E6E6E6E6E6E6E6E6E6E6
310
E6E6E6E6E6E6E6E6E6E6E6E6E6E6E6E6E6E628E6E6E6E6E6E6E6E6E6E6E6E6E6E6E6E6E6E6E6E6E6E6E6E6E6E6E6E6E6E6E6E6E6E6E6E6E6E6E6E6E6E6E6E6E6E6E6E6E6E6E6E6E6E6E6E6E6E6E6E6E6E6E6E6E6E6E6E6E6E6E6E6E6E6E6E6E6E6E6E6E6E6E6E6E6E6E6E6E6E6E6E6E6E6E6E6E6E6E628E6E6E6E6E6E6E6E6
310
E6E6E6E6E6E6E6E6E6E6E6E6E6E6E6E6E6E6E6E6E6E6E6E6E6E6E6E6E6E6E6E6E6E6E6E6E6E6E6E6E6E6E6E6E6E6E6E6E6E6E6E6E6E6E6E676E6E676E6E6E6E6E6E6E676E6E6E6E6E6E6E6E6E6E6E6E6E6E6E6E6E6E6E6E6E6E6E6E6E6E6E6E676E6E6E6E6E6E6E676E6E6E6E6E6E6E6E6E67676E6E6E6E6E6E6E6E6E6E6E6
310
E6E6E6E6E6E6E6E6E6E6E6E6E6E6E6E6E6E6E6E628E6E6E6E6E6E6E6E6E6E6E6E6E6E6E6E6E6E6E6E6E6E6E6E6E6E6E6E6E6E6E6E6E6E6E6E6E6E6E6E6E6E6E6E6E6E6E6E6E6E6E6E6E6E6E6E6E6E6E6E6E6E6E6E6E6E6E6E6E6E6E6E6E6E6E6E6E6E6E6E6E6E6E6E6E6E6E6E6E6E6E6E6E6E6E6E6E6E6E628E6E6E6E6E6E6
310
E6E6E6E6E6E6E6E6E6E6E6E6E6E6E6E6E6E6E6E6E6E6E6E6E6E6E6E6E6E6E6E6E6E6E6E6E6E6E6E6E6E6E6E6E6E6E6E6E6E6E6E6E6E6E6E6E6E676E6E676E6E6E6E6E6E6E676E6E6E6E6E6E6E6E6E6E6E6E6E6E6E6E6E6E6E6E6E6E6E6E6E6E6E6E676E6E6E6E6E6E6E676E6E6E6E6E6E6E6E6E67676E6E6E6E6E6E6E6E6E6
310
E6E6E6E6E6E6E6E6E6E6E6E6E6E6E6E6E6E6E6E6E6E628E6E6E6E6E6E6E6E6E6E6E6E6E6E6E6E6E6E6E6E6E6E6E6E6E6E6E6E6E6E6E6E6E6E6E6E6E6E6E6E6E6E6E6E6E6E6E6E6E6E6E6E6E6E6E6E6E6E6E6E6E6E6E6E6E6E6E6E6E6E6E6E6E6E6E6E6E6E6E6E6E6E6E6E6E6E6E6E6E6E6E6E6E6E6E6E6E6E6E628E6E6E6E6
310
E6E6E6E6E6E6E6E6E6E6E6E6E6E6E6E6E6E6E6E6E6E6E6E6E6E6E6E6E6E6E6E6E6E6E6E6E6E6E6E6E6E6E6E6E6E6E6E6E6E6E6E6E6E6E6E6E6E6E6E676E6E676E6E6E6E6E6E6E676E6E6E6E6E6E6E6E6E6E6E6E6E6E6E6E6E6E6E6E6E6E6E6E6E6E6E6E676E6E6E6E6E6E6E676E6E6E6E6E6E6E6E6E67676E6E6E6E6E6E6E6
310
E6E6E6E6E6E6E6E6E6E6E6E6E6E6E6E6E6E6E6E6E6E6E6E628E6E6E6E6E6E6E6E6E6E6E6E6E6E6E6E6E6E6E6E6E6E6E6E6E6E6E6E6E6E6E6E6E6E6E6E6E6E6E6E6E6E6E6E6E6E6E6E6E6E6E6E6E6E6E6E6E6E6E6E6E6E6E6E6E6E6E6E6E6E6E6E6E6E6E6E6E6E6E6E6E6E6E6E6E6E6E6E6E6E6E6E6E6E6E6E6E6E6E628E6E6
310
E6E6E6E6E6E6E6E6E6E6E6E6E6E6E6E6E6E6E6E6E6E6E6E6E6E6E6E6E6E6E6E6E6E6E6E6E6E6E6E6E6E6E6E6E6E6E6E6E6E6E6E6E6E6E6E6E6E6E6E6E6E676E6E676E6E6E6E6E6E6E676E6E6E6E6E6E6E6E6E6E6E6E6E6E6E6E6E6E6E6E6E6E6E6E6E6E6E6E676E6E6E6E6E6E6E676E6E6E6E6E6E6E6E6E67676E6E6E6E6E6
310
E6E6E6E6E6E6E6E6E6E6E6E6E6E6E6E6E6E6E6E6E6E6E6E6E6E628E6E6E6E6E6E6E6E6E6E6E6E6E6E6E6E6E6E6E6E6E6E6E6E6E6E6E6E6E6E6E6E6E6E6E6E6E6E6E6E6E6E6E6E6E6E6E6E6E6E6E6E6E6E6E6E6E6E6E6E6E6E6E6E6E6E6E6E6E6E6E6E6E6E6E6E6E6E6E6E6E6E6E6E6E6E6E6E6E6E6E6E6E6E6E6E6E6E6E628
310
E6E6E6E6E6E6E6E6E6E6E6E6E6E6E6E6E6E6E6E6E6E6E6E6E6E6E6E6E6E6E6E6E6E6E6E6E6E6E6E6E6E6E6E6E6E6E6E6E6E6E6E6E6E6E6E6E6E6E6E6E6E6E6E676E6E676E6E6E6E6E6E6E676E6E6E6E6E6E6E6E6E6E6E6E6E6E6E6E6E6E6E6E6E6E6E6E6E6E6E6E676E6E6E6E6E6E6E676E6E6E6E6E6E6E6E6E67676E6E6E6
310
E6E6E6E6E6E6E6E6E6E6E6E6E6E6E6E6E6E6E6E6E6E6E6E6E6E6E6E6282828282828282828282828282828282828282828282828282828282828282828282828282828282828282828282828282828282828282828282828282828282828282828282828282828282828282828282828282828282828282828282828282828
310
2828E6E6E6E6E6E6E6E6E6E6E6E6E6E6E6E6E6E6E6E6E6E6E6E6E6E6E6E6E6E6E6E6E6E6E6E6E6E6E6E6E6E6E6E6E6E6E6E6E6E6E6E6E6E6E6E6E6E6E6E6E6E6E6E676E6E676E6E6E6E6E6E6E676E6E6E6E6E6E6E6E6E6E6E6E6E6E6E6E6E6E6E6E6E6E6E6E6E6E6E6E676E6E6E6E6E6E6E676E6E6E6E6E6E6E6E6E67676E6
310
E6E6E6E6E6E6E6E6E6E6E6E6E6E6E6E6E6E6E6E6E6E6E6E6E6E6E6E6E6E628E6E6E6E6E6E6E6E6E6E6E6E6E6E6E6E6E6E6E6E6E6E6E6E6E6E6E6E6E6E6E6E6E6E6E6E6E6E6E6E6E6E6E6E6E6E6E6282828282828E6E6E6E6E6E6E6E6E6E6E6E6E6E6E6E6E6E6E6E6E6E6E6E6E6E6E6E6E6E6E6E6E6E6E6E6E6E6E6E6E6E6E6
310
E6E6E628E6E6E6E6E6E6E6E6E6E6E6E6E6E6E6E6E6E6E6E6E6E6E6E6E6E6E6E6E6E6E6E6E6E6E6E6E6E6E6E6E6E6E6E6E6E6E6E6E6E6E6E6E6E6E6E6E6E6E6E6E6E6E6E676E6E676E6E6E6E6E6E6E676E6E6E6E6E6E6E6E6E6E6E6E6E6E6E6E6E6E6E6E6E6E6E6E6E6E6E6E676E6E6E6E6E6E6E676E6E6E6E6E6E6E6E6E676
310
76E6E6E6E6E6E6E6E6E6E6E6E6E6E6E6E6E6E6E6E6E6E6E6E6E6E6E6E6E6E6E6E6E6E6E6E6E6E6E6E6E6E6E6E6E6E6E6E6E6E6E6E6E6E6E6E6E6E6E6E6E6E6E6E6E6E6E6E6E6E6E6E6E6E6E6E6E6E6E62828282828E6E6E6E6E6E6E6E6E6E6E6E6E6E6E6E6E6E6E6E6E6E6E6E6E6E6E6E6E6E6E6E6E6E6E6E6E6E6E6E6E6E6
310
E6E6E6E6E6E6E6E6E6E6E6E6E6E6E6E6E6E6E6E6E6E6E6E6E6E6E6E6E6E6E6E6E6E6E6E6E6E6E6E6E6E6E6E6E6E6E6E6E6E6E6E6E6E6E6E6E6E6E6E6E6E6E6E6E6E6E6E6E6E676E6E676E6E6E6E6E6E6E676E6E6E6E6E6E6E6E6E6E6E6E6E6E6E6E6E6E6E6E6E6E6E6E6E6E6E6E676E6E6E6E6E6E6E676E6E6E6E6E6E6E6E6
310
E67676E6E6E6E6E6E6E6E6E6E6E6E6E6E6E6E6E6E6E6E6E6E6E6E6E6E6E6E6E6E6E6E6E6E6E6E6E6E6E6E6E6E6E6E6E6E6E6E6E6E6E6E6E6E6E6E6E6E6E6E6E6E6E6E6E6E6E6E6E6E6E6E6E6E6E6E6E6E6E6E6E6E6E6E6E6E6E6E6E6E6E6E6E6E6E6E6E6E6E6E6E6E6E6E6E6E6E6E6E6E6E6E6E6E6E6E6E6E6E6E6E6E6E6E6
310
E6E6E6E6E6E6E6E6E6E6E6E6E6E6E6E6E6E6E6E6E6E6E6E6E6E6E6E6E6E6E6E6E6E6E6E6E6E6E6E6E6E6E6E6E6E6E6E6E6E6E6E6E6E6E6E6E6E6E6E6E6E6E6E6E6E6E6E6E6E6E6E676E6E676E6E6E6E6E6E6E676E6E6E6E6E6E6E6E6E6E6E6E6E6E6E6E6E6E6E6E6E6E6E6E6E6E6E6E676E6E6E6E6E6E6E676E6E6E6E6E6E6
310
E6E6E67676E6E6E6E6E6E6E6E6E6E6E6E6E6E6E6E6E6E6E6E6E6E6E6E6E6E6E6E6E6E6E6E6E6E6E6E6E6E6E6E6E6E6E6E6E6E6E6E6E6E6E6E6E6E6E6E6E6E6E6E6E6E6E6E6E6E6E6E6E6E6E6E6E6E6E6E6E6E6E6E6E6E6E6E6E6E6E6E6E6E6E6E6E6E6E6E6E6E6E6E6E6E6E6E6E6E6E6E6E6E6E6E6E6E6E6E6E6E6E6E6E6E6
310
E6E6E6E6E6E6E6E6E6E6E6E6E6E6E6E6E6E6E6E6E6E6E6E6E6E6E6E6E6E6E6E6E6E6E6E6E6E6E6E6E6E6E6E6E6E6E6E6E6E6E6E6E6E6E6E6E6E6E6E6E6E6E6E6E6E6E6E6E6E6E6E6E6E676E6E676E6E6E6E6E6E6E676E6E6E6E6E6E6E6E6E6E6E6E6E6E6E6E6E6E6E6E6E6E6E6E6E6E6E6E676E6E6E6E6E6E6E676E6E6E6E6
310
E6E6E6E6E67676E6E6E6E6E6E6E6E6E6E6E6E6E6E6E6E6E6E6E6E6E6E6E6E6E6E6E6E6E6E6E6E6E6E6E6E6E6E6E6E6E6E6E6E6E6E6E6E6E6E6E6E6E6E6E6E6E6E6E6E6E6E6E6E6E6E6E6E6E6E6E6E6E6E6E6E6E6E6E6E6E6E6E6E6E6E6E6E6E6E6E6E6E6E6E6E6E6E6E6E6E6E6E6E6E6E6E6E6E6E6E6E6E6E6E6E6E6E6E6E6
310
E6E6E6E6E6E6E6E6E6E6E6E6E6E6E6E6E6E6E6E6E6E6E6E6E6E6E6E6E6E6E6E6E6E6E6E6E6E6E6E6E6E6E6E6E6E6E6E6E6E6E6E6E6E6E6E6E6E6E6E6E6E6E6E6E6E6E6E6E6E6E6E6E6E6E6E676E6E676E6E6E6E6E6E6E676E6E6E6E6E6E6E6E6E6E6E6E6E6E6E6E6E6E6E6E6E6E6E6E6E6E6E6E676E6E6E6E6E6E6E676E6E6
310
E6E6E6E6E6E6E6767676767676767676767676767676767676767676767676767676767676767676767676767676767676767676767676767676767676767676767676767676767676767676767676767676767676767676767676767676767676767676767676767676767676767676767676767676767676767676767676
310
7676767676767676767676767676767676767676767676767676767676767676767676767676767676767676767676767676767676767676767676767676767676767676767676767676767676767676E676E6E6E6E6E6E6E676E6E6E6E6E6E6E6E6E6E6E6E6E6E6E6E6E6E6E6E6E6E6E6E6E6E6E6E676E6E6E6E6E6E6E676
310
E6E6E6E6E6E6E6E6E6E676E6E6E6E6E6E6E6E6E6E6E6E6E6E6E6E676E6E6E6E6E6E6E6E6E6E6E6E6E6E6E6E6E676E6E6E6E6E6E6E6E6E6E6E6E6E6E6E6E676E6E6E6E6E6E6E6E6E6E6E6E6E6E6E6E6E676E6E6E6E6E6E6E6E6E6E6E6E6E6E6E6E676E6E6E6E6E6E6E6E6E6E6E6E6E6E6E6E6E676E6E6E6E6E6E6E6E6E6E6E6
310
E6E6E6E6E67676E6E6E6E6E6E6E6E6E6E6E6E6E6E6E6E676E6E6E6E6E6E6E6E6E6E6E6E6E6E6E6E67676E6E6E6E6E6E6E6E6E6E6E6E6E6E6E6E676E6E6E6E6E6E6E6E6E6E6E6E67676E6E6E6E6E6E6E676E6E676E6E6E6E6E6E6E676E6E6E6E6E6E6E6E6E6E6E6E6E6E6E6E6E6E6E6E6E6E6E6E6E6E6E6E676E6E6E6E6E6E6
310
E676E6E6E6E6E6E6E6E6E6E6E6E6E6E6E6E6E6E6E6E6E6E6E6E6E6E6E676E6E6E6E6E6E6E6E6E6E6E6E6E6E6E6E6E6E6E6E6E6E6E6E6E6E6E6E6E6E6E6E6E6E676E6E6E6E6E6E6E6E6E6E6E6E6E6E6E6E6E6E6E6E6E6E6E6E6E6E6E6E6E6E6E6E6E6E676E6E6E6E6E6E6E6E6E6E6E6E6E6E6E6E6E6E6E6E6E6E6E6E6E6E6E6
310
E6E6E6E6E6E6E676E6E6E6E6E6E6E6E6E6E6E6E6E6E6E6E6E6E6E6E6E6E6E6E6E6E6E6E6E6E6E6E6E6E67676E6E6E6E6E6E6E6E6E6E6E6E6E6E6E6E6E6E6E6E6E6E6E6E6E6E6E6E6E6E676E6E6E6E6E6E6E6E6E6E676E6E6E6E6E6E6E676E6E6E6E6E6E6E6E6E6E6E6E6E6E6E6E6E6E6E6E6E6E6E6E6E6E6E6E676E6E6E6E6
310
E6E6E676767676767676767676767676767676767676767676767676767676767676767676767676767676767676767676767676767676767676767676767676767676767676767676767676767676767676767676767676767676767676767676767676767676767676767676767676767676767676767676767676767676
310
76767676767676767676767676767676767676767676767676767676767676767676767676767676767676767676767676767676767676767676767676767676767676767676767676767676767676767676767676767676E6E6E6E6E6E6E676E6E6E6E6E6E6E6E6E6E6E6E6E6E6E6E6E6E6E6E6E6E6E6E6E6E6E6E676E6E6
310
E6E6E6E6E6E6E6E6E6E6E6E6E6E6E6E6E6E6E6E6E6E6E6E6E6E6E6E6E6E6E6E6E6E6E6E6E6E6E6E6E6E6E6E6E6E6E6E6E6E6E6E6E6E6E6E6E6E6E6E6E6E6E6E6E6E6E6E6E6E6E6E6E6E6E6E6E6E6E6E6E6E6E6E6E6E6E6E6E6E6E6E6E6E6E6E6E6E6E6E6E6E6E6E6E6E6E6E6E6E6E6E6E6E6E6E6E6E6E6E6E6E6E6E6E6E6E6
310
E6E6E6E6E6E6E6E6E6E6E6E6E6E6E6E6E6E6E6E6E6E6E6E6E6E6E6E6E6E6E6E6E6E6E6E6E6E6E6E6E6E6E6E6E6E6E6E6E6E6E6E6E6E6E6E6E6E6E6E6E6E6E6E6E6E6E6E6E6E6E6E6E6E6E6E6E6E6E6E6E6E6E6E6E6E6E6E6E6E6E6E6E6E6E6E6E676E6E6E6E6E6E6E6E6E6E6E6E6E6E6E6E6E6E6E6E6E6E6E6E6E6E6E6E676
310
E6E6E6E6E6E6E6E6E6E6E6E6E6E6E6E6E6E6E6E6E6E6E6E6E6E6E6E6E6E6E6E6E6E6E6E6E6E6E6E6E6E6E6E6E6E6E6E6E6E6E6E6E6E6E6E6E6E6E6E6E6E6E6E6E6E6E6E6E6E6E6E6E6E6E6E6E6E6E6E6E6E6E6E6E6E6E6E6E6E6E6E6E6E6E6E6E6E6E6E6E6E6E6E6E6E6E6E6E6E6E6E6E6E6E6E6E6E6E6E6E6E6E6E6E6E6E6
310
E6E6E6E6E6E6E6E6E6E6E6E6E6E6E6E6E6E6E6E6E6E6E6E6E6E6E6E6E6E6E6E6E6E6E6E6E6E6E6E6E6E6E6E6E6E6E6E6E6E6E6E6E6E6E6E6E6E6E6E6E6E6E6E6E6E6E6E6E6E6E6E6E6E6E6E6E6E6E6E6E6E6E6E6E6E6E6E6E6E6E6E6E6E6E6E6E6E6E676E6E6E6E6E6E6E6E6E6E6E6E6E6E6E6E6E6E6E6E6E6E6E6E6E6E6E6
310
E676E6E6E6E6E6E6E6E6E6E6E6E6E6E6E6E6E6E6E6E6E6E6E6E6E6E6E6E6E6E6E6E6E6E6E6E6E6E6E6E6E6E6E6E6E6E6E6E6E6E6E6E6E6E6E6E6E6E6E6E6E6E6E6E6E6E6E6E6E6E6E6E6E6E6E6E6E6E6E6E6E6E6E6E6E6E6E6E6E6E6E6E6E6E6E6E6E6E6E6E6E6E6E6E6E6E6E6E6E6E6E6E6E6E6E6E6E6E6E6E6E6E6E6E6E6
310
E6E6E6E6E6E6E6E6E6E6E6E6E6E6E6E6E6E6E6E6E6E6E6E6E6E6E6E6E6E6E6E6E6E6E6E6E6E6E6E6E6E6E6E6E6E6E6E6E6E6E6E6E6E6E6E6E6E6E6E6E6E6E6E6E6E6E6E6E6E6E6E6E6E6E6E6E6E6E6E6E6E6E6E6E6E6E6E6E6E6E6E6E6E6E6E6E6E6E6E6E676E6E6E6E6E6E6E6E6E6E6E6E6E6E6E6E6E6E6E6E6E6E6E6E6E6
310
E6E6E676E6E6E6E6E6E6E6E6E6E6E6E6E6E6E6E6E6E6E6E6E6E6E6E6E6E6E6E6E6E6E6E6E6E6E6E6E6E6E6E6E6E6E6E6E6E6E6E6E6E6E6E6E6E6E6E6E6E6E6E6E6E6E6E6E6E6E6E6E6E6E6E6E6E6E6E6E6E6E6E6E6E6E6E6E6E6E6E6E6E6E6E6E6E6E6E6E6E6E6E6E6E6E6E6E6E6E6E6E6E6E6E6E6E6E6E6E6E6E6E6E6E6E6
310
E6E6E6E6E6E6E6E6E6E6E6E6E6E6E6E6E6E6E6E6E6E6E6E6E6E6E6E6E6E6E6E6E6E6E6E6E6E6E6E6E6E6E6E6E6E6E6E6E6E6E6E6E6E6E6E6E6E6E6E6E6E6E6E6E6E6E6E6E6E6E6E6E6E6E6E6E6E6E6E6E6E6E6E6E6E6E6E6E6E6E6E6E6E6E6E6E6E6E6E6E6E6E676E6E6E6E6E6E6E6E6E6E6E6E6E6E6E6E6E6E6E6E6E6E6E6
310
E6E6E6E6E676E6E6E6E6E6E6E6E6E6E6E6E6E6E6E6E6E6E6E6E6E6E6E6E6E6E6E6E6E6E6E6E6E6E6E6E6E6E6E6E6E6E6E6E6E6E6E6E6E6E6E6E6E6E6E6E6E6E6E6E6E6E6E6E6E6E6E6E6E6E6E6E6E6E6E6E6E6E6E6E6E6E6E6E6E6E6E6E6E6E6E6E6E6E6E6E6E6E6E6E6E6E6E6E6E6E6E6E6E6E6E6E6E6E6E6E6E6E6E6E6E6
310
E6E6E6E6E6E6E6E6E6E6E6E6E6E6E6E6E6E6E6E6E6E6E6E6E6E6E6E6E6E6E6E6E6E6E6E6E6E6E6E6E6E6E6E6E6E6E6E6E6E6E6E6E6E6E6E6E6E6E6E6E6E6E6E6E6E6E6E6E6E6E6E6E6E6E6E6E6E6E6E6E6E6E6E6E6E6E6E6E6E6E6E6E6E6E6E6E6E6E6E6E6E6E6E6E676E6E6E6E6E6E6E6E6E6E6E6E6E6E6E6E6E6E6E6E6E6
310
E6E6E6E6E6E6E676E6E6E6E6E6E6E6E6E6E6E6E6E6E6E6E6E6E6E6E6E6E6E6E6E6E6E6E6E6E6E6E6E6E6E6E6E6E6E6E6E6E6E6E6E6E6E6E6E6E6E6E6E6E6E6E6E6E6E6E6E6E6E6E6E6E6E6E6E6E6E6E6E6E6E6E6E6E6E6E6E6E6E6E6E6E6E6E6E6E6E6E6E6E6E6E6E6E6E6E6E6E6E6E6E6E6E6E6E6E6E6E6E6E6E6E6E6E6E6
310
E6E6E6E6E6E6E6E6E6E6E6E6E6E6E6E6E6E6E6E6E6E6E6E6E6E6E6E6E6E6E6E6E6E6E6E6E6E6E6E6E6E6E6E6E6E6E6E6E6E6E6E6E6E6E6E6E6E6E6E6E6E6E6E6E6E6E6E6E6E6E6E6E6E6E6E6E6E6E6E6E6E6E6E6E6E6E6E6E6E6E6E6E6E6E6E6E6E6E6E6E6E6E6E6E6E6E676E6E6E6E6E6E6E6E6E6E6E6E6E6E6E6E6E6E6E6
310
E6E6E6E6E6E6E6E6E676767676767676767676767676767676767676767676767676767676767676767676767676767676767676767676767676767676767676767676767676767676767676767676767676767676767676767676767676767676767676767676767676767676767676767676767676767676767676767676
310
7676767676767676767676767676767676767676767676767676767676767676767676767676767676767676767676767676767676767676767676767676767676767676767676767676767676767676767676767676767676767676767676767676767676767676767676767676E6E6E6E6E6E6E6E6E6E6E6E6E6E6E6E6E6
310
E6E6E6E6E6E6E6E6E6E6E6E6E6E6E6E6E6E6E6E6E6E6E6E6E6E6E6E6E6E6E6E6E6E6E6E6E6E6E6E6E6E6E6E6E6E6E6E6E6E6E6E6E6E6E6E6E6E6E6E6E6E6E6E6E6E6E6E6E6E6E6E6E6E6E6E6E6E6E6E6E6E6E6E6E6E6E6E6E6E6E6E6E6E6E6E6E6E6E6E6E6E6E6E6E6E6E6E6E6E6E6E6E6E6E6E6E6E6E6E6E6E6E6E6E6E6E6
310
E6E6E6E6E6E6E6E6E6E6E6E6E6E6E6E6E6E6E6E6E6E6E6E6E6E6E6E6E6E6E6E6E6E6E6E6E6E6E6E6E6E6E6E6E6E6E6E6E6E6E6E6E6E6E6E6E6E6E6E6E6E6E6E6E6E6E6E6E6E6E6E6E6E6E6E6E6E6E6E6E6E6E6E6E6E6E6E6E6E6E6E6E6E6E6E6E6E6E6E6E6E6E6E6E6E6E6E6E6E6E6E6E6E6E6E6E6E6E6E6E6E6E6E6E6E6
  0
XRECORD
  5
8E8
102
{ACAD_REACTORS
330
24D
102
}
330
24D
100
AcDbXrecord
280
     1
102
MATERIAL
148
0.0
149
0.0
149
0.0
 93
        0
 94
      127
282
     0
 72
     0
 77
     0
171
     0
175
     0
179
     0
273
     0
  0
XRECORD
  5
24F
102
{ACAD_REACTORS
330
24D
102
}
330
24D
100
AcDbXrecord
280
     1
270
     1
271
     1
  0
XRECORD
  5
24E
102
{ACAD_REACTORS
330
24D
102
}
330
24D
100
AcDbXrecord
280
     1
270
     1
271
     1
  0
XRECORD
  5
252
102
{ACAD_REACTORS
330
24D
102
}
330
24D
100
AcDbXrecord
280
     1
270
     1
271
     1
  0
XRECORD
  5
251
102
{ACAD_REACTORS
330
24D
102
}
330
24D
100
AcDbXrecord
280
     1
270
     1
271
     1
  0
XRECORD
  5
253
102
{ACAD_REACTORS
330
24D
102
}
330
24D
100
AcDbXrecord
280
     1
270
     1
271
     1
  0
XRECORD
  5
250
102
{ACAD_REACTORS
330
24D
102
}
330
24D
100
AcDbXrecord
280
     1
270
     1
271
     1
  0
XRECORD
  5
8E7
102
{ACAD_REACTORS
330
245
102
}
330
245
100
AcDbXrecord
280
     1
102
MATERIAL
148
0.0
149
0.0
149
0.0
 93
        0
 94
      127
282
     0
 72
     0
 77
     0
171
     0
175
     0
179
     0
273
     0
  0
XRECORD
  5
247
102
{ACAD_REACTORS
330
245
102
}
330
245
100
AcDbXrecord
280
     1
270
     1
271
     1
  0
XRECORD
  5
246
102
{ACAD_REACTORS
330
245
102
}
330
245
100
AcDbXrecord
280
     1
270
     1
271
     1
  0
XRECORD
  5
24A
102
{ACAD_REACTORS
330
245
102
}
330
245
100
AcDbXrecord
280
     1
270
     1
271
     1
  0
XRECORD
  5
249
102
{ACAD_REACTORS
330
245
102
}
330
245
100
AcDbXrecord
280
     1
270
     1
271
     1
  0
XRECORD
  5
24B
102
{ACAD_REACTORS
330
245
102
}
330
245
100
AcDbXrecord
280
     1
270
     1
271
     1
  0
XRECORD
  5
248
102
{ACAD_REACTORS
330
245
102
}
330
245
100
AcDbXrecord
280
     1
270
     1
271
     1
  0
XRECORD
  5
8E9
102
{ACAD_REACTORS
330
255
102
}
330
255
100
AcDbXrecord
280
     1
102
MATERIAL
148
0.0
149
0.0
149
0.0
 93
        0
 94
      127
282
     0
 72
     0
 77
     0
171
     0
175
     0
179
     0
273
     0
  0
XRECORD
  5
257
102
{ACAD_REACTORS
330
255
102
}
330
255
100
AcDbXrecord
280
     1
270
     1
271
     1
  0
XRECORD
  5
256
102
{ACAD_REACTORS
330
255
102
}
330
255
100
AcDbXrecord
280
     1
270
     1
271
     1
  0
XRECORD
  5
25A
102
{ACAD_REACTORS
330
255
102
}
330
255
100
AcDbXrecord
280
     1
270
     1
271
     1
  0
XRECORD
  5
259
102
{ACAD_REACTORS
330
255
102
}
330
255
100
AcDbXrecord
280
     1
270
     1
271
     1
  0
XRECORD
  5
25B
102
{ACAD_REACTORS
330
255
102
}
330
255
100
AcDbXrecord
280
     1
270
     1
271
     1
  0
XRECORD
  5
258
102
{ACAD_REACTORS
330
255
102
}
330
255
100
AcDbXrecord
280
     1
270
     1
271
     1
  0
CELLSTYLEMAP
  5
8DF
102
{ACAD_REACTORS
330
8DE
102
}
330
8DE
100
AcDbCellStyleMap
 90
        3
300
CELLSTYLE
  1
TABLEFORMAT_BEGIN
 90
        5
170
     1
 91
        0
 92
    32768
 62
   257
 93
        1
300
CONTENTFORMAT
  1
CONTENTFORMAT_BEGIN
 90
        0
 91
        0
 92
      512
 93
        0
300

 40
0.0
140
1.0
 94
        5
 62
     0
340
F
144
0.25
309
CONTENTFORMAT_END
171
     0
 94
        0
309
TABLEFORMAT_END
  1
CELLSTYLE_BEGIN
 90
        1
 91
        1
300
_TITLE
309
CELLSTYLE_END
300
CELLSTYLE
  1
TABLEFORMAT_BEGIN
 90
        5
170
     1
 91
        0
 92
        0
 62
   257
 93
        1
300
CONTENTFORMAT
  1
CONTENTFORMAT_BEGIN
 90
        0
 91
        0
 92
      512
 93
        0
300

 40
0.0
140
1.0
 94
        5
 62
     0
340
F
144
0.18
309
CONTENTFORMAT_END
171
     0
 94
        0
309
TABLEFORMAT_END
  1
CELLSTYLE_BEGIN
 90
        2
 91
        1
300
_HEADER
309
CELLSTYLE_END
300
CELLSTYLE
  1
TABLEFORMAT_BEGIN
 90
        5
170
     1
 91
        0
 92
        0
 62
   257
 93
        1
300
CONTENTFORMAT
  1
CONTENTFORMAT_BEGIN
 90
        0
 91
        0
 92
      512
 93
        0
300

 40
0.0
140
1.0
 94
        2
 62
     0
340
F
144
0.18
309
CONTENTFORMAT_END
171
     0
 94
        0
309
TABLEFORMAT_END
  1
CELLSTYLE_BEGIN
 90
        3
 91
        2
300
_DATA
309
CELLSTYLE_END
  0
XRECORD
  5
910
102
{ACAD_REACTORS
330
8DE
102
}
330
8DE
100
AcDbXrecord
280
     1
102
ACAD_ROUNDTRIP_PRE2007_TABLESTYLE
 90
      512
 91
        0
  1

 92
      512
 93
        0
  2

 94
      512
 95
        0
  3

  0
XRECORD
  5
8F5
102
{ACAD_REACTORS
330
8F4
102
}
330
8F4
100
AcDbXrecord
280
     1
102
RTVSPropertyOp0
 70
     1
102
RTVSPropertyOp1
 70
     1
102
RTVSPropertyOp2
 70
     1
102
RTVSPropertyOp3
 70
     1
102
RTVSPropertyOp4
 70
     1
102
RTVSPropertyOp5
 70
     1
102
RTVSPropertyOp6
 70
     1
102
RTVSPropertyOp7
 70
     1
102
RTVSPropertyOp8
 70
     1
102
RTVSPropertyOp9
 70
     1
102
RTVSPropertyOp10
 70
     1
102
RTVSPropertyOp11
 70
     1
102
RTVSPropertyOp12
 70
     1
102
RTVSPropertyOp13
 70
     1
102
RTVSPropertyOp14
 70
     1
102
RTVSPropertyOp15
 70
     1
102
RTVSPropertyOp16
 70
     1
102
RTVSPropertyOp17
 70
     1
102
RTVSPropertyOp18
 70
     1
102
RTVSPropertyOp19
 70
     1
102
RTVSPropertyOp20
 70
     1
102
RTVSPropertyOp21
 70
     1
102
RTVSPropertyOp22
 70
     1
102
RTVSPropertyOp23
 70
     1
102
RTVSPropertyOp24
 70
     1
102
RTVSPropertyOp25
 70
     1
102
RTVSPropertyOp26
 70
     1
102
RTVSPropertyOp27
 70
     1
  0
XRECORD
  5
8F9
102
{ACAD_REACTORS
330
8F8
102
}
330
8F8
100
AcDbXrecord
280
     1
102
RTVSPropertyOp0
 70
     1
102
RTVSPropertyOp1
 70
     1
102
RTVSPropertyOp2
 70
     1
102
RTVSPropertyOp3
 70
     1
102
RTVSPropertyOp4
 70
     1
102
RTVSPropertyOp5
 70
     1
102
RTVSPropertyOp6
 70
     1
102
RTVSPropertyOp7
 70
     1
102
RTVSPropertyOp8
 70
     1
102
RTVSPropertyOp9
 70
     1
102
RTVSPropertyOp10
 70
     1
102
RTVSPropertyOp11
 70
     1
102
RTVSPropertyOp12
 70
     1
102
RTVSPropertyOp13
 70
     1
102
RTVSPropertyOp14
 70
     1
102
RTVSPropertyOp15
 70
     1
102
RTVSPropertyOp16
 70
     1
102
RTVSPropertyOp17
 70
     1
102
RTVSPropertyOp18
 70
     1
102
RTVSPropertyOp19
 70
     1
102
RTVSPropertyOp20
 70
     1
102
RTVSPropertyOp21
 70
     1
102
RTVSPropertyOp22
 70
     1
102
RTVSPropertyOp23
 70
     1
102
RTVSPropertyOp24
 70
     1
102
RTVSPropertyOp25
 70
     1
102
RTVSPropertyOp26
 70
     1
102
RTVSPropertyOp27
 70
     1
  0
XRECORD
  5
8F7
102
{ACAD_REACTORS
330
8F6
102
}
330
8F6
100
AcDbXrecord
280
     1
102
RTVSPropertyOp0
 70
     1
102
RTVSPropertyOp1
 70
     1
102
RTVSPropertyOp2
 70
     1
102
RTVSPropertyOp3
 70
     1
102
RTVSPropertyOp4
 70
     1
102
RTVSPropertyOp5
 70
     1
102
RTVSPropertyOp6
 70
     1
102
RTVSPropertyOp7
 70
     1
102
RTVSPropertyOp8
 70
     1
102
RTVSPropertyOp9
 70
     1
102
RTVSPropertyOp10
 70
     1
102
RTVSPropertyOp11
 70
     1
102
RTVSPropertyOp12
 70
     1
102
RTVSPropertyOp13
 70
     1
102
RTVSPropertyOp14
 70
     1
102
RTVSPropertyOp15
 70
     1
102
RTVSPropertyOp16
 70
     1
102
RTVSPropertyOp17
 70
     1
102
RTVSPropertyOp18
 70
     1
102
RTVSPropertyOp19
 70
     1
102
RTVSPropertyOp20
 70
     1
102
RTVSPropertyOp21
 70
     1
102
RTVSPropertyOp22
 70
     1
102
RTVSPropertyOp23
 70
     1
102
RTVSPropertyOp24
 70
     1
102
RTVSPropertyOp25
 70
     1
102
RTVSPropertyOp26
 70
     1
102
RTVSPropertyOp27
 70
     1
  0
XRECORD
  5
8F3
102
{ACAD_REACTORS
330
8F2
102
}
330
8F2
100
AcDbXrecord
280
     1
102
RTVSPropertyOp0
 70
     1
102
RTVSPropertyOp1
 70
     1
102
RTVSPropertyOp2
 70
     1
102
RTVSPropertyOp3
 70
     1
102
RTVSPropertyOp4
 70
     1
102
RTVSPropertyOp5
 70
     1
102
RTVSPropertyOp6
 70
     1
102
RTVSPropertyOp7
 70
     1
102
RTVSPropertyOp8
 70
     1
102
RTVSPropertyOp9
 70
     1
102
RTVSPropertyOp10
 70
     1
102
RTVSPropertyOp11
 70
     1
102
RTVSPropertyOp12
 70
     1
102
RTVSPropertyOp13
 70
     1
102
RTVSPropertyOp14
 70
     1
102
RTVSPropertyOp15
 70
     1
102
RTVSPropertyOp16
 70
     1
102
RTVSPropertyOp17
 70
     1
102
RTVSPropertyOp18
 70
     1
102
RTVSPropertyOp19
 70
     1
102
RTVSPropertyOp20
 70
     1
102
RTVSPropertyOp21
 70
     1
102
RTVSPropertyOp22
 70
     1
102
RTVSPropertyOp23
 70
     1
102
RTVSPropertyOp24
 70
     1
102
RTVSPropertyOp25
 70
     1
102
RTVSPropertyOp26
 70
     1
102
RTVSPropertyOp27
 70
     1
  0
XRECORD
  5
901
102
{ACAD_REACTORS
330
900
102
}
330
900
100
AcDbXrecord
280
     1
102
RTVSPropertyOp0
 70
     1
102
RTVSPropertyOp1
 70
     1
102
RTVSPropertyOp2
 70
     1
102
RTVSPropertyOp3
 70
     1
102
RTVSPropertyOp4
 70
     1
102
RTVSPropertyOp5
 70
     1
102
RTVSPropertyOp6
 70
     1
102
RTVSPropertyOp7
 70
     1
102
RTVSPropertyOp8
 70
     1
102
RTVSPropertyOp9
 70
     1
102
RTVSPropertyOp10
 70
     1
102
RTVSPropertyOp11
 70
     1
102
RTVSPropertyOp12
 70
     1
102
RTVSPropertyOp13
 70
     1
102
RTVSPropertyOp14
 70
     1
102
RTVSPropertyOp15
 70
     1
102
RTVSPropertyOp16
 70
     1
102
RTVSPropertyOp17
 70
     1
102
RTVSPropertyOp18
 70
     1
102
RTVSPropertyOp19
 70
     1
102
RTVSPropertyOp20
 70
     1
102
RTVSPropertyOp21
 70
     1
102
RTVSPropertyOp22
 70
     1
102
RTVSPropertyOp23
 70
     1
102
RTVSPropertyOp24
 70
     1
102
RTVSPropertyOp25
 70
     1
102
RTVSPropertyOp26
 70
     1
102
RTVSPropertyOp27
 70
     1
  0
XRECORD
  5
909
102
{ACAD_REACTORS
330
908
102
}
330
908
100
AcDbXrecord
280
     1
102
RTVSPropertyOp0
 70
     1
102
RTVSPropertyOp1
 70
     1
102
RTVSPropertyOp2
 70
     1
102
RTVSPropertyOp3
 70
     1
102
RTVSPropertyOp4
 70
     1
102
RTVSPropertyOp5
 70
     1
102
RTVSPropertyOp6
 70
     1
102
RTVSPropertyOp7
 70
     1
102
RTVSPropertyOp8
 70
     1
102
RTVSPropertyOp9
 70
     1
102
RTVSPropertyOp10
 70
     1
102
RTVSPropertyOp11
 70
     1
102
RTVSPropertyOp12
 70
     1
102
RTVSPropertyOp13
 70
     1
102
RTVSPropertyOp14
 70
     1
102
RTVSPropertyOp15
 70
     1
102
RTVSPropertyOp16
 70
     1
102
RTVSPropertyOp17
 70
     1
102
RTVSPropertyOp18
 70
     1
102
RTVSPropertyOp19
 70
     1
102
RTVSPropertyOp20
 70
     1
102
RTVSPropertyOp21
 70
     1
102
RTVSPropertyOp22
 70
     1
102
RTVSPropertyOp23
 70
     1
102
RTVSPropertyOp24
 70
     1
102
RTVSPropertyOp25
 70
     1
102
RTVSPropertyOp26
 70
     1
102
RTVSPropertyOp27
 70
     1
  0
XRECORD
  5
8FB
102
{ACAD_REACTORS
330
8FA
102
}
330
8FA
100
AcDbXrecord
280
     1
102
RTVSPropertyOp0
 70
     1
102
RTVSPropertyOp1
 70
     1
102
RTVSPropertyOp2
 70
     1
102
RTVSPropertyOp3
 70
     1
102
RTVSPropertyOp4
 70
     1
102
RTVSPropertyOp5
 70
     1
102
RTVSPropertyOp6
 70
     1
102
RTVSPropertyOp7
 70
     1
102
RTVSPropertyOp8
 70
     1
102
RTVSPropertyOp9
 70
     1
102
RTVSPropertyOp10
 70
     1
102
RTVSPropertyOp11
 70
     1
102
RTVSPropertyOp12
 70
     1
102
RTVSPropertyOp13
 70
     1
102
RTVSPropertyOp14
 70
     1
102
RTVSPropertyOp15
 70
     1
102
RTVSPropertyOp16
 70
     1
102
RTVSPropertyOp17
 70
     1
102
RTVSPropertyOp18
 70
     1
102
RTVSPropertyOp19
 70
     1
102
RTVSPropertyOp20
 70
     1
102
RTVSPropertyOp21
 70
     1
102
RTVSPropertyOp22
 70
     1
102
RTVSPropertyOp23
 70
     1
102
RTVSPropertyOp24
 70
     1
102
RTVSPropertyOp25
 70
     1
102
RTVSPropertyOp26
 70
     1
102
RTVSPropertyOp27
 70
     1
  0
XRECORD
  5
8FF
102
{ACAD_REACTORS
330
8FE
102
}
330
8FE
100
AcDbXrecord
280
     1
102
RTVSPropertyOp0
 70
     1
102
RTVSPropertyOp1
 70
     1
102
RTVSPropertyOp2
 70
     1
102
RTVSPropertyOp3
 70
     1
102
RTVSPropertyOp4
 70
     1
102
RTVSPropertyOp5
 70
     1
102
RTVSPropertyOp6
 70
     1
102
RTVSPropertyOp7
 70
     1
102
RTVSPropertyOp8
 70
     1
102
RTVSPropertyOp9
 70
     1
102
RTVSPropertyOp10
 70
     1
102
RTVSPropertyOp11
 70
     1
102
RTVSPropertyOp12
 70
     1
102
RTVSPropertyOp13
 70
     1
102
RTVSPropertyOp14
 70
     1
102
RTVSPropertyOp15
 70
     1
102
RTVSPropertyOp16
 70
     1
102
RTVSPropertyOp17
 70
     1
102
RTVSPropertyOp18
 70
     1
102
RTVSPropertyOp19
 70
     1
102
RTVSPropertyOp20
 70
     1
102
RTVSPropertyOp21
 70
     1
102
RTVSPropertyOp22
 70
     1
102
RTVSPropertyOp23
 70
     1
102
RTVSPropertyOp24
 70
     1
102
RTVSPropertyOp25
 70
     1
102
RTVSPropertyOp26
 70
     1
102
RTVSPropertyOp27
 70
     1
  0
XRECORD
  5
90F
102
{ACAD_REACTORS
330
90E
102
}
330
90E
100
AcDbXrecord
280
     1
102
RTVSPropertyOp0
 70
     0
102
RTVSPropertyOp1
 70
     0
102
RTVSPropertyOp2
 70
     0
102
RTVSPropertyOp3
 70
     0
102
RTVSPropertyOp4
 70
     0
102
RTVSPropertyOp5
 70
     0
102
RTVSPropertyOp6
 70
     0
102
RTVSPropertyOp7
 70
     0
102
RTVSPropertyOp8
 70
     0
102
RTVSPropertyOp9
 70
     0
102
RTVSPropertyOp10
 70
     0
102
RTVSPropertyOp11
 70
     0
102
RTVSPropertyOp12
 70
     0
102
RTVSPropertyOp13
 70
     0
102
RTVSPropertyOp14
 70
     2
102
RTVSPropertyOp15
 70
     0
102
RTVSPropertyOp16
 70
     0
102
RTVSPropertyOp17
 70
     0
102
RTVSPropertyOp18
 70
     0
102
RTVSPropertyOp19
 70
     0
102
RTVSPropertyOp20
 70
     0
102
RTVSPropertyOp21
 70
     0
102
RTVSPropertyOp22
 70
     0
102
RTVSPropertyOp23
 70
     0
102
RTVSPropertyOp24
 70
     0
102
RTVSPropertyOp25
 70
     0
102
RTVSPropertyOp26
 70
     0
102
RTVSPropertyOp27
 70
     0
  0
XRECORD
  5
907
102
{ACAD_REACTORS
330
906
102
}
330
906
100
AcDbXrecord
280
     1
102
RTVSPropertyOp0
 70
     1
102
RTVSPropertyOp1
 70
     1
102
RTVSPropertyOp2
 70
     1
102
RTVSPropertyOp3
 70
     1
102
RTVSPropertyOp4
 70
     1
102
RTVSPropertyOp5
 70
     1
102
RTVSPropertyOp6
 70
     1
102
RTVSPropertyOp7
 70
     1
102
RTVSPropertyOp8
 70
     1
102
RTVSPropertyOp9
 70
     1
102
RTVSPropertyOp10
 70
     1
102
RTVSPropertyOp11
 70
     1
102
RTVSPropertyOp12
 70
     1
102
RTVSPropertyOp13
 70
     1
102
RTVSPropertyOp14
 70
     1
102
RTVSPropertyOp15
 70
     1
102
RTVSPropertyOp16
 70
     1
102
RTVSPropertyOp17
 70
     1
102
RTVSPropertyOp18
 70
     1
102
RTVSPropertyOp19
 70
     1
102
RTVSPropertyOp20
 70
     1
102
RTVSPropertyOp21
 70
     1
102
RTVSPropertyOp22
 70
     1
102
RTVSPropertyOp23
 70
     1
102
RTVSPropertyOp24
 70
     1
102
RTVSPropertyOp25
 70
     1
102
RTVSPropertyOp26
 70
     1
102
RTVSPropertyOp27
 70
     1
  0
XRECORD
  5
8EB
102
{ACAD_REACTORS
330
8EA
102
}
330
8EA
100
AcDbXrecord
280
     1
102
RTVSPropertyOp0
 70
     1
102
RTVSPropertyOp1
 70
     1
102
RTVSPropertyOp2
 70
     1
102
RTVSPropertyOp3
 70
     1
102
RTVSPropertyOp4
 70
     1
102
RTVSPropertyOp5
 70
     1
102
RTVSPropertyOp6
 70
     1
102
RTVSPropertyOp7
 70
     1
102
RTVSPropertyOp8
 70
     1
102
RTVSPropertyOp9
 70
     1
102
RTVSPropertyOp10
 70
     1
102
RTVSPropertyOp11
 70
     1
102
RTVSPropertyOp12
 70
     1
102
RTVSPropertyOp13
 70
     1
102
RTVSPropertyOp14
 70
     1
102
RTVSPropertyOp15
 70
     1
102
RTVSPropertyOp16
 70
     1
102
RTVSPropertyOp17
 70
     1
102
RTVSPropertyOp18
 70
     1
102
RTVSPropertyOp19
 70
     1
102
RTVSPropertyOp20
 70
     1
102
RTVSPropertyOp21
 70
     1
102
RTVSPropertyOp22
 70
     1
102
RTVSPropertyOp23
 70
     1
102
RTVSPropertyOp24
 70
     1
102
RTVSPropertyOp25
 70
     1
102
RTVSPropertyOp26
 70
     1
102
RTVSPropertyOp27
 70
     1
  0
XRECORD
  5
8ED
102
{ACAD_REACTORS
330
8EC
102
}
330
8EC
100
AcDbXrecord
280
     1
102
RTVSPropertyOp0
 70
     1
102
RTVSPropertyOp1
 70
     1
102
RTVSPropertyOp2
 70
     1
102
RTVSPropertyOp3
 70
     1
102
RTVSPropertyOp4
 70
     1
102
RTVSPropertyOp5
 70
     1
102
RTVSPropertyOp6
 70
     1
102
RTVSPropertyOp7
 70
     1
102
RTVSPropertyOp8
 70
     1
102
RTVSPropertyOp9
 70
     1
102
RTVSPropertyOp10
 70
     1
102
RTVSPropertyOp11
 70
     1
102
RTVSPropertyOp12
 70
     1
102
RTVSPropertyOp13
 70
     1
102
RTVSPropertyOp14
 70
     1
102
RTVSPropertyOp15
 70
     1
102
RTVSPropertyOp16
 70
     1
102
RTVSPropertyOp17
 70
     1
102
RTVSPropertyOp18
 70
     1
102
RTVSPropertyOp19
 70
     1
102
RTVSPropertyOp20
 70
     1
102
RTVSPropertyOp21
 70
     1
102
RTVSPropertyOp22
 70
     1
102
RTVSPropertyOp23
 70
     1
102
RTVSPropertyOp24
 70
     1
102
RTVSPropertyOp25
 70
     1
102
RTVSPropertyOp26
 70
     1
102
RTVSPropertyOp27
 70
     1
  0
XRECORD
  5
8EF
102
{ACAD_REACTORS
330
8EE
102
}
330
8EE
100
AcDbXrecord
280
     1
102
RTVSPropertyOp0
 70
     1
102
RTVSPropertyOp1
 70
     1
102
RTVSPropertyOp2
 70
     1
102
RTVSPropertyOp3
 70
     1
102
RTVSPropertyOp4
 70
     1
102
RTVSPropertyOp5
 70
     1
102
RTVSPropertyOp6
 70
     1
102
RTVSPropertyOp7
 70
     1
102
RTVSPropertyOp8
 70
     1
102
RTVSPropertyOp9
 70
     1
102
RTVSPropertyOp10
 70
     1
102
RTVSPropertyOp11
 70
     1
102
RTVSPropertyOp12
 70
     1
102
RTVSPropertyOp13
 70
     1
102
RTVSPropertyOp14
 70
     1
102
RTVSPropertyOp15
 70
     1
102
RTVSPropertyOp16
 70
     1
102
RTVSPropertyOp17
 70
     1
102
RTVSPropertyOp18
 70
     1
102
RTVSPropertyOp19
 70
     1
102
RTVSPropertyOp20
 70
     1
102
RTVSPropertyOp21
 70
     1
102
RTVSPropertyOp22
 70
     1
102
RTVSPropertyOp23
 70
     1
102
RTVSPropertyOp24
 70
     1
102
RTVSPropertyOp25
 70
     1
102
RTVSPropertyOp26
 70
     1
102
RTVSPropertyOp27
 70
     1
  0
XRECORD
  5
8F1
102
{ACAD_REACTORS
330
8F0
102
}
330
8F0
100
AcDbXrecord
280
     1
102
RTVSPropertyOp0
 70
     1
102
RTVSPropertyOp1
 70
     1
102
RTVSPropertyOp2
 70
     1
102
RTVSPropertyOp3
 70
     1
102
RTVSPropertyOp4
 70
     1
102
RTVSPropertyOp5
 70
     1
102
RTVSPropertyOp6
 70
     1
102
RTVSPropertyOp7
 70
     1
102
RTVSPropertyOp8
 70
     1
102
RTVSPropertyOp9
 70
     1
102
RTVSPropertyOp10
 70
     1
102
RTVSPropertyOp11
 70
     1
102
RTVSPropertyOp12
 70
     1
102
RTVSPropertyOp13
 70
     1
102
RTVSPropertyOp14
 70
     1
102
RTVSPropertyOp15
 70
     1
102
RTVSPropertyOp16
 70
     1
102
RTVSPropertyOp17
 70
     1
102
RTVSPropertyOp18
 70
     1
102
RTVSPropertyOp19
 70
     1
102
RTVSPropertyOp20
 70
     1
102
RTVSPropertyOp21
 70
     1
102
RTVSPropertyOp22
 70
     1
102
RTVSPropertyOp23
 70
     1
102
RTVSPropertyOp24
 70
     1
102
RTVSPropertyOp25
 70
     1
102
RTVSPropertyOp26
 70
     1
102
RTVSPropertyOp27
 70
     1
  0
XRECORD
  5
90B
102
{ACAD_REACTORS
330
90A
102
}
330
90A
100
AcDbXrecord
280
     1
102
RTVSPropertyOp0
 70
     0
102
RTVSPropertyOp1
 70
     0
102
RTVSPropertyOp2
 70
     0
102
RTVSPropertyOp3
 70
     0
102
RTVSPropertyOp4
 70
     0
102
RTVSPropertyOp5
 70
     0
102
RTVSPropertyOp6
 70
     0
102
RTVSPropertyOp7
 70
     0
102
RTVSPropertyOp8
 70
     0
102
RTVSPropertyOp9
 70
     0
102
RTVSPropertyOp10
 70
     0
102
RTVSPropertyOp11
 70
     0
102
RTVSPropertyOp12
 70
     0
102
RTVSPropertyOp13
 70
     0
102
RTVSPropertyOp14
 70
     2
102
RTVSPropertyOp15
 70
     0
102
RTVSPropertyOp16
 70
     0
102
RTVSPropertyOp17
 70
     0
102
RTVSPropertyOp18
 70
     0
102
RTVSPropertyOp19
 70
     0
102
RTVSPropertyOp20
 70
     0
102
RTVSPropertyOp21
 70
     0
102
RTVSPropertyOp22
 70
     0
102
RTVSPropertyOp23
 70
     0
102
RTVSPropertyOp24
 70
     0
102
RTVSPropertyOp25
 70
     0
102
RTVSPropertyOp26
 70
     0
102
RTVSPropertyOp27
 70
     0
  0
XRECORD
  5
905
102
{ACAD_REACTORS
330
904
102
}
330
904
100
AcDbXrecord
280
     1
102
RTVSPropertyOp0
 70
     1
102
RTVSPropertyOp1
 70
     1
102
RTVSPropertyOp2
 70
     1
102
RTVSPropertyOp3
 70
     1
102
RTVSPropertyOp4
 70
     1
102
RTVSPropertyOp5
 70
     1
102
RTVSPropertyOp6
 70
     1
102
RTVSPropertyOp7
 70
     1
102
RTVSPropertyOp8
 70
     1
102
RTVSPropertyOp9
 70
     1
102
RTVSPropertyOp10
 70
     1
102
RTVSPropertyOp11
 70
     1
102
RTVSPropertyOp12
 70
     1
102
RTVSPropertyOp13
 70
     1
102
RTVSPropertyOp14
 70
     1
102
RTVSPropertyOp15
 70
     1
102
RTVSPropertyOp16
 70
     1
102
RTVSPropertyOp17
 70
     1
102
RTVSPropertyOp18
 70
     1
102
RTVSPropertyOp19
 70
     1
102
RTVSPropertyOp20
 70
     1
102
RTVSPropertyOp21
 70
     1
102
RTVSPropertyOp22
 70
     1
102
RTVSPropertyOp23
 70
     1
102
RTVSPropertyOp24
 70
     1
102
RTVSPropertyOp25
 70
     1
102
RTVSPropertyOp26
 70
     1
102
RTVSPropertyOp27
 70
     1
  0
XRECORD
  5
90D
102
{ACAD_REACTORS
330
90C
102
}
330
90C
100
AcDbXrecord
280
     1
102
RTVSPropertyOp0
 70
     0
102
RTVSPropertyOp1
 70
     0
102
RTVSPropertyOp2
 70
     0
102
RTVSPropertyOp3
 70
     0
102
RTVSPropertyOp4
 70
     0
102
RTVSPropertyOp5
 70
     0
102
RTVSPropertyOp6
 70
     0
102
RTVSPropertyOp7
 70
     0
102
RTVSPropertyOp8
 70
     0
102
RTVSPropertyOp9
 70
     0
102
RTVSPropertyOp10
 70
     0
102
RTVSPropertyOp11
 70
     0
102
RTVSPropertyOp12
 70
     0
102
RTVSPropertyOp13
 70
     0
102
RTVSPropertyOp14
 70
     2
102
RTVSPropertyOp15
 70
     0
102
RTVSPropertyOp16
 70
     0
102
RTVSPropertyOp17
 70
     0
102
RTVSPropertyOp18
 70
     0
102
RTVSPropertyOp19
 70
     0
102
RTVSPropertyOp20
 70
     0
102
RTVSPropertyOp21
 70
     0
102
RTVSPropertyOp22
 70
     0
102
RTVSPropertyOp23
 70
     0
102
RTVSPropertyOp24
 70
     0
102
RTVSPropertyOp25
 70
     0
102
RTVSPropertyOp26
 70
     0
102
RTVSPropertyOp27
 70
     0
  0
XRECORD
  5
8FD
102
{ACAD_REACTORS
330
8FC
102
}
330
8FC
100
AcDbXrecord
280
     1
102
RTVSPropertyOp0
 70
     1
102
RTVSPropertyOp1
 70
     1
102
RTVSPropertyOp2
 70
     1
102
RTVSPropertyOp3
 70
     1
102
RTVSPropertyOp4
 70
     1
102
RTVSPropertyOp5
 70
     1
102
RTVSPropertyOp6
 70
     1
102
RTVSPropertyOp7
 70
     1
102
RTVSPropertyOp8
 70
     1
102
RTVSPropertyOp9
 70
     1
102
RTVSPropertyOp10
 70
     1
102
RTVSPropertyOp11
 70
     1
102
RTVSPropertyOp12
 70
     1
102
RTVSPropertyOp13
 70
     1
102
RTVSPropertyOp14
 70
     1
102
RTVSPropertyOp15
 70
     1
102
RTVSPropertyOp16
 70
     1
102
RTVSPropertyOp17
 70
     1
102
RTVSPropertyOp18
 70
     1
102
RTVSPropertyOp19
 70
     1
102
RTVSPropertyOp20
 70
     1
102
RTVSPropertyOp21
 70
     1
102
RTVSPropertyOp22
 70
     1
102
RTVSPropertyOp23
 70
     1
102
RTVSPropertyOp24
 70
     1
102
RTVSPropertyOp25
 70
     1
102
RTVSPropertyOp26
 70
     1
102
RTVSPropertyOp27
 70
     1
  0
XRECORD
  5
903
102
{ACAD_REACTORS
330
902
102
}
330
902
100
AcDbXrecord
280
     1
102
RTVSPropertyOp0
 70
     1
102
RTVSPropertyOp1
 70
     1
102
RTVSPropertyOp2
 70
     1
102
RTVSPropertyOp3
 70
     1
102
RTVSPropertyOp4
 70
     1
102
RTVSPropertyOp5
 70
     1
102
RTVSPropertyOp6
 70
     1
102
RTVSPropertyOp7
 70
     1
102
RTVSPropertyOp8
 70
     1
102
RTVSPropertyOp9
 70
     1
102
RTVSPropertyOp10
 70
     1
102
RTVSPropertyOp11
 70
     1
102
RTVSPropertyOp12
 70
     1
102
RTVSPropertyOp13
 70
     1
102
RTVSPropertyOp14
 70
     1
102
RTVSPropertyOp15
 70
     1
102
RTVSPropertyOp16
 70
     1
102
RTVSPropertyOp17
 70
     1
102
RTVSPropertyOp18
 70
     1
102
RTVSPropertyOp19
 70
     1
102
RTVSPropertyOp20
 70
     1
102
RTVSPropertyOp21
 70
     1
102
RTVSPropertyOp22
 70
     1
102
RTVSPropertyOp23
 70
     1
102
RTVSPropertyOp24
 70
     1
102
RTVSPropertyOp25
 70
     1
102
RTVSPropertyOp26
 70
     1
102
RTVSPropertyOp27
 70
     1
  0
ENDSEC
  0
EOF
